<?xml version="1.0" standalone="no"?>
<!DOCTYPE svg PUBLIC "-//W3C//DTD SVG 1.1//EN" "http://www.w3.org/Graphics/SVG/1.1/DTD/svg11.dtd" >
<svg xmlns="http://www.w3.org/2000/svg">
<defs>
<font id="in-app-ui" horiz-adv-x="1024">
<font-face units-per-em="1024" ascent="960" descent="-64" />
<missing-glyph horiz-adv-x="1024" />
<glyph unicode="&#x20;" horiz-adv-x="512" d="" />
<glyph unicode="&#xe900;" glyph-name="S_IconLeft2Right_Md_N@2x" d="M454.26 638.654l-4.028-10.761-71.144-175.864 132.912-29.547-55.034 209.439-2.706 6.734zM930.877 963.54h-773.311c-17.795 0-32.221-14.426-32.221-32.221v-843.554c0-0.002 0-0.005 0-0.007 0-15.515 10.964-28.468 25.567-31.533l580.193-116.034c1.937-0.413 4.163-0.651 6.444-0.651 17.795 0 32.221 14.426 32.221 32.221 0 0.002 0 0.005 0 0.007v89.575h161.106c17.795 0 32.221 14.426 32.221 32.221v837.754c0 17.795-14.426 32.221-32.221 32.221zM642.271 183.786c-3.354-3.574-8.107-5.8-13.38-5.8-0.008 0-0.017 0-0.025 0-0.019 0-0.043 0-0.067 0-1.471 0-2.904 0.164-4.282 0.476l-33.22 7.45c-8.499 2.374-15.017 9.042-17.138 17.457l-46.047 153.348-171.836 36.249-50.717-125.051c-2.693-7.269-9.566-12.355-17.628-12.355-1.473 0-2.906 0.17-4.281 0.49l-29.646 5.614c-6.793 1.748-12.27 6.339-15.18 12.396-1.967 3.686-3.086 7.901-3.086 12.377 0 3.592 0.722 7.016 2.028 10.135l183.308 426.501c3.052 8.14 10.767 13.83 19.811 13.83 1.705 0 3.362-0.202 4.949-0.583l37.877-8.541c9.867-2.824 17.432-10.562 19.965-20.327l143.653-500.306c0.685-2.148 1.081-4.617 1.081-7.18 0-6.22-2.328-11.896-6.161-16.206zM898.655 125.788h-128.885v697.075c0 0.002 0 0.005 0 0.007 0 15.515-10.964 28.468-25.567 31.533l-338.308 44.696h492.76v-773.311z" />
<glyph unicode="&#xe901;" glyph-name="S_IconRight2Left_Md_N@2x" d="M866.435 963.541h-773.312c-17.795 0-32.221-14.426-32.221-32.221v-837.755c0-17.795 14.426-32.221 32.221-32.221h161.106v-89.576c0-0.002 0-0.005 0-0.007 0-17.795 14.426-32.221 32.221-32.221 2.281 0 4.507 0.237 6.654 0.688l579.774 115.959c14.812 3.103 25.778 16.056 25.778 31.571 0 0.002 0 0.005 0 0.007v843.554c0 17.795-14.426 32.221-32.221 32.221zM280.006 854.472c-14.812-3.103-25.778-16.056-25.778-31.571 0-0.002 0-0.005 0-0.007v-697.108h-128.886v773.312h492.761zM801.992 308.385l-161.106 139.615v-128.886l64.443 11.503v-64.443l-64.443-11.503v-64.443l-64.443-9.215v73.658l-64.443-11.503v64.443l64.443 11.503v128.886l-179.505-165.715-18.818 75.172 198.323 182.695v19.526l-193.328-47.237v64.443l193.328 49.492v79.393l-52.939-5.768 40.051 70.21h77.332v-132.333l156.499 11.503-1.16-59.835-155.339-17.27v-23.103l179.891-170.999z" />
<glyph unicode="&#xe902;" glyph-name="S_IconRight2LeftMe_Md_N@2x" d="M569.74 638.654l4.028-10.761 71.144-175.864-132.913-29.547 55.034 209.439 2.706 6.734zM60.901 931.321v-837.756c0-17.795 14.426-32.221 32.221-32.221h161.107v-89.576c0-0.002 0-0.005 0-0.007 0-17.795 14.426-32.221 32.221-32.221 2.281 0 4.507 0.237 6.654 0.688l579.775 115.96c14.812 3.103 25.778 16.056 25.778 31.571 0 0.002 0 0.005 0 0.007v843.555c0 17.795-14.426 32.221-32.221 32.221h-773.313c-17.795 0-32.221-14.426-32.221-32.221zM376.67 207.146l143.642 500.14c2.577 9.964 10.143 17.701 19.808 20.475l38.223 8.62c1.443 0.352 3.102 0.554 4.805 0.554 9.044 0 16.76-5.689 19.764-13.684l183.42-426.821c1.242-2.945 1.963-6.37 1.963-9.962 0-4.477-1.12-8.691-3.095-12.379-2.901-6.055-8.378-10.645-15.012-12.359l-29.933-5.674c-1.248-0.296-2.681-0.466-4.154-0.466-8.062 0-14.935 5.087-17.585 12.226l-50.759 125.18-171.869-36.281-46.012-153.277c-2.157-8.583-8.675-15.251-17.003-17.584l-33.52-7.516c-1.248-0.287-2.681-0.451-4.153-0.451-0.024 0-0.049 0-0.072 0-0.003 0-0.011 0-0.020 0-5.273 0-10.026 2.226-13.371 5.79-3.833 4.298-6.17 9.983-6.17 16.216 0 2.588 0.403 5.084 1.151 7.424zM125.344 899.099h492.761l-338.099-44.627c-14.812-3.103-25.778-16.056-25.778-31.571 0-0.002 0-0.005 0-0.007v-697.109h-128.886v773.313z" />
<glyph unicode="&#xe903;" glyph-name="S_CameraOutline_16_N_lt2x" d="M987.424 67.872l-432.96 857.152c-7.814 15.911-23.901 26.67-42.501 26.67-18.775 0-34.989-10.962-42.592-26.834l-432.667-856.156c-2.954-6.057-4.688-13.176-4.704-20.699 0-0.035 0-0.070 0-0.105 0-26.13 21.020-47.351 47.073-47.676h864.031c0.32 0 0.544-0.16 0.864-0.16 0.010 0 0.021 0 0.032 0 26.487 0 47.964 21.454 48 47.933-0.069 7.237-1.749 14.062-4.699 20.158zM576 144c0-8.837-7.163-16-16-16h-96c-8.837 0-16 7.163-16 16v96c0 8.837 7.163 16 16 16h96c8.837 0 16-7.163 16-16v-96zM576 336c0-8.837-7.163-16-16-16h-96c-8.837 0-16 7.163-16 16v352c0 8.837 7.163 16 16 16h96c8.837 0 16-7.163 16-16v-352z" />
<glyph unicode="&#xe904;" glyph-name="S_Checked_16_N_lt2x" d="M512 896c-247.424 0-448-200.576-448-448s200.576-448 448-448c247.424 0 448 200.576 448 448s-200.576 448-448 448zM816.224 628.896l-362.336-435.2c-5.911-7.054-14.724-11.508-24.578-11.508-9.239 0-17.563 3.915-23.405 10.177l-193.937 208.627c-2.39 2.779-3.844 6.422-3.844 10.404 0 4.769 2.086 9.050 5.396 11.981l70.897 62.447c2.804 2.475 6.509 3.987 10.568 3.987 4.835 0 9.169-2.145 12.103-5.535l120.593-123.284 291.84 348.608c2.954 3.479 7.331 5.672 12.22 5.672 3.879 0 7.436-1.381 10.206-3.677l72.166-60.107c3.567-2.956 5.823-7.388 5.823-12.346 0-3.91-1.402-7.492-3.731-10.271z" />
<glyph unicode="&#xe905;" glyph-name="S_ChevronLeft_24_N_lt2x" d="M466.752 448l241.344 241.365c7.718 7.721 12.492 18.386 12.492 30.165s-4.774 22.445-12.492 30.165l-30.165 30.165c-7.721 7.718-18.386 12.492-30.165 12.492s-22.445-4.774-30.165-12.492l-301.696-301.696c-7.718-7.721-12.492-18.386-12.492-30.165s4.774-22.445 12.492-30.165l301.696-301.696c7.721-7.718 18.386-12.492 30.165-12.492s22.445 4.774 30.165 12.492l30.165 30.165c7.718 7.721 12.492 18.386 12.492 30.165s-4.774 22.445-12.492 30.165z" />
<glyph unicode="&#xe906;" glyph-name="S_Clock_18_N_lt2x" d="M512 903.111c-251.351 0-455.111-203.76-455.111-455.111s203.76-455.111 455.111-455.111c251.351 0 455.111 203.76 455.111 455.111s-203.76 455.111-455.111 455.111zM512 49.778c-219.932 0-398.222 178.29-398.222 398.222s178.29 398.222 398.222 398.222c219.932 0 398.222-178.29 398.222-398.222s-178.29-398.222-398.222-398.222zM568.889 502.443v258.446c0 15.709-12.735 28.444-28.444 28.444h-56.889c-15.709 0-28.444-12.735-28.444-28.444v-301.113c0.002-7.854 3.186-14.964 8.334-20.11l159.488-159.488c5.147-5.146 12.257-8.328 20.11-8.328s14.963 3.183 20.11 8.328l38.002 38.002c5.146 5.147 8.328 12.257 8.328 20.11s-3.183 14.963-8.328 20.11l-123.932 123.932c-5.148 5.146-8.332 12.256-8.334 20.11z" />
<glyph unicode="&#xe907;" glyph-name="S_DownloadFromCloud_24_N_lt2x" d="M789.333 598.592c1.811 9.464 2.894 20.393 2.986 31.558 0.001 112.143-77.311 212.047-201.002 212.047-104.661 0-174.933-85.184-199.424-173.077-16.491 5.124-35.451 8.078-55.1 8.085-92.866-0.412-167.99-75.768-168.025-168.679 0.043-15.781 2.592-30.948 7.269-45.149-2.64 1.198-4.88 1.668-7.269 1.668-60.373 0-114.283-43.883-114.283-100.032 0-60.629 53.333-87.701 106.325-87.701h308.523v234.688c0 11.782 9.551 21.333 21.333 21.333h42.667c11.782 0 21.333-9.551 21.333-21.333v-234.667h246.080l32 1.835c73.024 13.44 136.235 29.547 136.235 126.165 0 104-105.173 180.864-179.648 193.259zM469.333 149.333h-119.168c-11.78-0.003-21.329-9.553-21.329-21.333 0-5.89 2.387-11.222 6.246-15.083l176.917-176.917 176.917 176.917c3.859 3.86 6.246 9.193 6.246 15.083 0 11.78-9.549 21.331-21.329 21.333h-119.168v128h-85.333v-128z" />
<glyph unicode="&#xe908;" glyph-name="S_GridView_18_N_lt2x" d="M142.222 846.222h312.889v-341.333h-341.333v312.889c0 15.709 12.735 28.444 28.444 28.444zM568.889 846.222h312.889c15.709 0 28.444-12.735 28.444-28.444v-312.889h-341.333v341.333zM113.778 391.111h341.333v-341.333h-312.889c-15.709 0-28.444 12.735-28.444 28.444v312.889zM568.889 391.111h341.333v-312.889c0-15.709-12.735-28.444-28.444-28.444h-312.889v341.333z" />
<glyph unicode="&#xe909;" glyph-name="S_HelpOutline_24_N_lt2x" d="M512 791.467c189.691 0 343.467-153.775 343.467-343.467s-153.775-343.467-343.467-343.467c-189.691 0-343.467 153.775-343.467 343.467 0.218 189.603 153.863 343.248 343.446 343.467zM512 872.533c-234.463 0-424.533-190.070-424.533-424.533s190.070-424.533 424.533-424.533c234.463 0 424.533 190.070 424.533 424.533s-190.070 424.533-424.533 424.533c0 0 0 0 0 0zM634.112 561.813c0-75.093-96.939-118.101-96.939-157.035 0.793-13.626 5.273-26.065 12.446-36.51 0.209-0.305 0.427-0.98 0.427-1.706 0-1.956-1.586-3.541-3.541-3.541-0.161 0-0.32 0.011-0.475 0.032l-60.078-0.002c-0.345-0.048-0.744-0.075-1.149-0.075-2.863 0-5.409 1.359-7.027 3.467-10.729 12.442-17.381 28.63-17.763 46.362-0.001 54.715 89.428 88.144 89.428 142.779 0 26.624-21.845 49.835-63.488 49.835-0.694 0.009-1.514 0.014-2.336 0.014-29.066 0-56.663-6.29-81.503-17.584 0.735 0.104 0.093-0.138-0.605-0.138-1.638 0-2.965 1.328-2.965 2.965 0 0.143 0.010 0.284 0.030 0.422l-0.002 54c-0.1 0.427-0.157 0.916-0.157 1.419 0 2.244 1.136 4.223 2.864 5.393 28.556 13.406 61.986 21.221 97.242 21.221 1.589 0 3.174-0.016 4.756-0.047 79.635 0.004 130.835-45.735 130.835-111.271zM464.107 261.397c0 26.392 21.395 47.787 47.787 47.787s47.787-21.395 47.787-47.787c0.086-1.034 0.134-2.239 0.134-3.455 0-24.554-19.905-44.459-44.459-44.459-1.181 0-2.351 0.046-3.509 0.136-0.694-0.066-1.684-0.099-2.682-0.099-24.931 0-45.141 20.21-45.141 45.141 0 0.962 0.030 1.917 0.089 2.864z" />
<glyph unicode="&#xe90a;" glyph-name="S_Landscape_24_N_lt2x" d="M597.333 618.667c0-47.128-38.205-85.333-85.333-85.333s-85.333 38.205-85.333 85.333c0 47.128 38.205 85.333 85.333 85.333s85.333-38.205 85.333-85.333zM938.667 832h-853.333c-23.564 0-42.667-19.103-42.667-42.667v-682.667c0-23.564 19.103-42.667 42.667-42.667h853.333c23.564 0 42.667 19.103 42.667 42.667v682.667c0 23.564-19.103 42.667-42.667 42.667zM896 149.333h-256v42.667c23.564 0 42.667 19.103 42.667 42.667v170.667c0 47.128-38.205 85.333-85.333 85.333h-170.667c-47.128 0-85.333-38.205-85.333-85.333v-170.667c0-23.564 19.103-42.667 42.667-42.667v-42.667h-256v597.333h768v-597.333z" />
<glyph unicode="&#xe90b;" glyph-name="S_ListView_18_N_lt2x" d="M142.222 846.222h739.556c15.709 0 28.444-12.735 28.444-28.444v-56.889c0-15.709-12.735-28.444-28.444-28.444h-739.556c-15.709 0-28.444 12.735-28.444 28.444v56.889c0 15.709 12.735 28.444 28.444 28.444zM142.222 618.667h739.556c15.709 0 28.444-12.735 28.444-28.444v-56.889c0-15.709-12.735-28.444-28.444-28.444h-739.556c-15.709 0-28.444 12.735-28.444 28.444v56.889c0 15.709 12.735 28.444 28.444 28.444zM142.222 391.111h739.556c15.709 0 28.444-12.735 28.444-28.444v-56.889c0-15.709-12.735-28.444-28.444-28.444h-739.556c-15.709 0-28.444 12.735-28.444 28.444v56.889c0 15.709 12.735 28.444 28.444 28.444zM142.222 163.556h739.556c15.709 0 28.444-12.735 28.444-28.444v-56.889c0-15.709-12.735-28.444-28.444-28.444h-739.556c-15.709 0-28.444 12.735-28.444 28.444v56.889c0 15.709 12.735 28.444 28.444 28.444z" />
<glyph unicode="&#xe90c;" glyph-name="S_Portrait_24_N_lt2x" d="M597.333 661.333c0-47.128-38.205-85.333-85.333-85.333s-85.333 38.205-85.333 85.333c0 47.128 38.205 85.333 85.333 85.333s85.333-38.205 85.333-85.333zM853.333 917.333h-682.667c-23.564 0-42.667-19.103-42.667-42.667v-853.333c0-23.564 19.103-42.667 42.667-42.667h682.667c23.564 0 42.667 19.103 42.667 42.667v853.333c0 23.564-19.103 42.667-42.667 42.667zM810.667 64h-170.667v170.667c23.564 0 42.667 19.103 42.667 42.667v170.667c0 47.128-38.205 85.333-85.333 85.333h-170.667c-47.128 0-85.333-38.205-85.333-85.333v-170.667c0-23.564 19.103-42.667 42.667-42.667v-170.667h-170.667v768h597.333v-768z" />
<glyph unicode="&#xe90d;" glyph-name="S_Search_24_N_lt2x" d="M597.333 874.667c-188.496-0.023-341.293-152.834-341.293-341.333 0-71.614 22.054-138.077 59.741-192.967l-211.696-209.785c-11.116-11.497-17.966-27.18-17.966-44.462 0-35.346 28.654-64 64-64 17.282 0 32.964 6.85 44.48 17.983l210.926 210.927c53.744-36.96 120.228-59.029 191.867-59.029 188.513 0 341.333 152.82 341.333 341.333s-152.82 341.333-341.333 341.333c-0.021 0-0.041 0-0.062 0zM597.333 275.2c-142.563 0-258.133 115.57-258.133 258.133s115.57 258.133 258.133 258.133c142.563 0 258.133-115.57 258.133-258.133-0.17-142.495-115.639-257.963-258.117-258.133z" />
<glyph unicode="&#xe90e;" glyph-name="S_Settings_24_N_lt2x" d="M896 518.4h-63.851c-4.868 0.018-8.945 3.38-10.055 7.907-8.35 32.433-20.518 60.844-36.307 86.81-0.185 0.146-0.765 2.033-0.765 4.056 0 2.868 1.167 5.464 3.052 7.338l45.227 45.227c7.718 7.721 12.492 18.386 12.492 30.165s-4.774 22.445-12.492 30.165l-39.211 39.253c-7.721 7.718-18.386 12.492-30.165 12.492s-22.445-4.774-30.165-12.492l-45.227-45.227c-1.875-1.885-4.47-3.052-7.338-3.052-2.023 0-3.91 0.581-5.505 1.584-24.518 14.967-52.93 27.129-83.086 34.966-6.806 1.601-10.174 5.67-10.205 10.531v63.875c0 23.564-19.103 42.667-42.667 42.667h-55.467c-23.564 0-42.667-19.103-42.667-42.667v-63.872c-0.018-4.868-3.38-8.945-7.907-10.055-32.432-8.338-60.844-20.5-86.81-36.286-0.146-0.185-2.034-0.766-4.057-0.766-2.868 0-5.464 1.167-7.338 3.052l-45.227 45.227c-7.721 7.718-18.386 12.492-30.165 12.492s-22.445-4.774-30.165-12.492l-39.232-39.211c-7.718-7.721-12.492-18.386-12.492-30.165s4.774-22.445 12.492-30.165l45.227-45.227c1.885-1.875 3.052-4.47 3.052-7.338 0-2.023-0.581-3.91-1.584-5.505-14.97-24.518-27.139-52.929-34.986-83.083-1.612-6.806-5.69-10.168-10.555-10.186h-63.853c-23.564 0-42.667-19.103-42.667-42.667v-55.467c0-23.564 19.103-42.667 42.667-42.667h63.851c4.868-0.018 8.945-3.38 10.055-7.907 8.35-32.433 20.518-60.844 36.307-86.81 0.185-0.146 0.765-2.033 0.765-4.056 0-2.868-1.167-5.464-3.052-7.338l-45.227-45.227c-7.718-7.721-12.492-18.386-12.492-30.165s4.774-22.445 12.492-30.165l39.232-39.232c7.722-7.725 18.391-12.503 30.176-12.503s22.454 4.778 30.176 12.503l45.227 45.227c1.875 1.885 4.47 3.052 7.338 3.052 2.023 0 3.91-0.581 5.505-1.584 24.518-14.963 52.929-27.125 83.084-34.965 6.806-1.612 10.168-5.689 10.185-10.555v-63.895c0-23.564 19.103-42.667 42.667-42.667h55.467c23.564 0 42.667 19.103 42.667 42.667v63.872c0.018 4.868 3.38 8.945 7.907 10.055 32.432 8.342 60.844 20.504 86.812 36.286 0.144 0.184 2.032 0.765 4.055 0.765 2.868 0 5.464-1.167 7.338-3.052l45.227-45.227c7.722-7.725 18.391-12.503 30.176-12.503s22.454 4.778 30.176 12.503l39.232 39.232c7.718 7.721 12.492 18.386 12.492 30.165s-4.774 22.445-12.492 30.165l-45.227 45.227c-1.885 1.875-3.052 4.47-3.052 7.338 0 2.023 0.581 3.91 1.584 5.505 14.97 24.518 27.139 52.929 34.986 83.083 1.612 6.806 5.69 10.168 10.555 10.186h63.81c23.564 0 42.667 19.103 42.667 42.667v55.467c0 23.564-19.103 42.667-42.667 42.667zM512 288c-88.366 0-160 71.634-160 160s71.634 160 160 160c88.366 0 160-71.634 160-160s-71.634-160-160-160z" />
<glyph unicode="&#xe90f;" glyph-name="S_SaveLocal_Wi_N_D2x" horiz-adv-x="1252" d="M876.089 604.444h-119.467v233.244c0 17.067-14.222 34.133-34.133 34.133h-68.267c-17.067 0-34.133-14.222-34.133-34.133v-233.244h-119.467c-17.067 0-34.133-14.222-34.133-34.133 0-8.533 2.844-17.067 8.533-22.756l210.489-224.711 210.489 224.711c14.222 14.222 14.222 34.133 0 48.356-2.844 2.844-11.378 8.533-19.911 8.533zM1157.689 402.489h-267.378l-179.2-190.578c-11.378-11.378-28.444-11.378-42.667 0 0 0 0 0 0 0l-179.2 190.578h-403.911c-36.978 0-68.267-31.289-68.267-68.267v-267.378c0-36.978 31.289-68.267 68.267-68.267h1072.356c36.978 0 68.267 31.289 68.267 68.267v267.378c-2.844 36.978-31.289 68.267-68.267 68.267zM187.733 200.533h-68.267c-17.067 0-34.133 14.222-34.133 34.133v68.267c0 17.067 17.067 31.289 34.133 31.289h68.267c17.067 0 34.133-14.222 34.133-34.133v-68.267c-2.844-14.222-17.067-31.289-34.133-31.289z" />
<glyph unicode="&#xe910;" glyph-name="ColumnOnly" d="M777.767 225.004c6.126 6.91 9.866 16.054 9.866 26.073 0 21.73-17.599 39.351-39.322 39.385h-196.927v315.077h91.884c14.508 0 26.27 11.761 26.27 26.27v0 262.538c0 14.508-11.761 26.27-26.27 26.27v0h-262.538c-14.508 0-26.27-11.761-26.27-26.27v0-262.577c0-14.508 11.761-26.27 26.27-26.27h91.884v-315.077h-196.923c-21.74-0.014-39.36-17.642-39.36-39.385 0-9.889 3.646-18.928 9.665-25.845l-0.041 0.048 263.601-328.625z" />
<glyph unicode="&#xe911;" glyph-name="GridByColumn" d="M560.756 244.672c-5.459 6.271-8.787 14.522-8.787 23.551 0 19.837 16.064 35.921 35.894 35.956h179.78v287.643h-98.086l-333.378-333.378v-205.952c0-19.857-16.097-35.956-35.956-35.956v0h-215.733c-19.857 0-35.956 16.097-35.956 35.956v0 215.733c0 19.857 16.097 35.956 35.956 35.956v0h107.866v287.643h-107.866c-19.857 0-35.956 16.097-35.956 35.956v0 215.733c0 19.857 16.097 35.956 35.956 35.956v0h215.733c19.857 0 35.956-16.097 35.956-35.956v0-215.733c0-19.857-16.097-35.956-35.956-35.956v0h-35.956v-287.643h26.176l333.378 333.378v205.952c0 19.857 16.097 35.956 35.956 35.956v0h215.733c19.857 0 35.956-16.097 35.956-35.956v0-215.733c0-19.857-16.097-35.956-35.956-35.956v0h-35.956v-287.643h179.777c0.006 0 0.011 0 0.018 0 19.857 0 35.956-16.097 35.956-35.956 0-9.146-3.415-17.495-9.039-23.84l0.032 0.037-244.928-299.796z" />
<glyph unicode="&#xe912;" glyph-name="GridByRow" d="M699.827 367.145c-6.278 5.465-14.54 8.797-23.58 8.797-19.862 0-35.965-16.084-36-35.938v-180h-287.995v98.206l333.786 333.786h206.204c19.881 0 36 16.117 36 36v0 215.996c0 19.881-16.117 36-36 36v0h-215.996c-19.881 0-36-16.117-36-36v0-107.998h-287.995v107.998c0 19.881-16.117 36-36 36v0h-215.996c-19.881 0-36-16.117-36-36v0-215.996c0-19.881 16.117-36 36-36v0h215.996c19.881 0 36 16.117 36 36v0 36h287.995v-26.208l-333.786-333.786h-206.204c-19.881 0-36-16.117-36-36v0-215.996c0-19.881 16.117-36 36-36v0h215.996c19.881 0 36 16.117 36 36v0 36h287.995v-179.997c0-0.006 0-0.011 0-0.018 0-19.881 16.117-36 36-36 9.158 0 17.516 3.419 23.869 9.050l-0.037-0.032 300.163 245.228z" />
<glyph unicode="&#xe913;" glyph-name="LeftToRight" d="M0 448h663.704v-198.96c-0.001-0.081-0.001-0.177-0.001-0.273 0-15.563 12.616-28.179 28.179-28.179 6.564 0 12.604 2.244 17.395 6.008l-0.061-0.047 295.823 259.376-295.823 250.045c-4.729 3.717-10.769 5.961-17.333 5.961-15.563 0-28.179-12.616-28.179-28.179 0-0.096 0-0.192 0.001-0.288v0.015-189.629h-663.704c-10.473 0-18.963-8.491-18.963-18.963v0-37.925c0-10.473 8.491-18.963 18.963-18.963v0z" />
<glyph unicode="&#xe914;" glyph-name="RightToLeft" d="M498.008 251.633c5.275 6.059 8.489 14.023 8.489 22.745 0 19.158-15.514 34.69-34.668 34.728h-173.625v277.796h94.726l321.964-321.964v-198.901c0-19.176 15.546-34.728 34.728-34.728v0h208.349c19.176 0 34.728 15.546 34.728 34.728v0 208.349c0 19.176-15.546 34.728-34.728 34.728v0h-104.174v277.796h104.174c19.176 0 34.728 15.546 34.728 34.728v0 208.349c0 19.176-15.546 34.728-34.728 34.728v0h-208.349c-19.176 0-34.728-15.546-34.728-34.728v0-208.349c0-19.176 15.546-34.728 34.728-34.728v0h34.728v-277.796h-25.28l-321.964 321.964v198.901c0 19.176-15.546 34.728-34.728 34.728v0h-208.349c-19.176 0-34.728-15.546-34.728-34.728v0-208.349c0-19.176 15.546-34.728 34.728-34.728v0h34.728v-277.796h-173.622c-0.007 0-0.012 0-0.020 0-19.176 0-34.728-15.546-34.728-34.728 0-8.831 3.301-16.899 8.727-23.024l-0.028 0.033 236.543-289.533z" />
<glyph unicode="&#xe915;" glyph-name="RightToLeft_GridByRow" d="M340.423 367.145c6.278 5.465 14.54 8.797 23.58 8.797 19.862 0 35.965-16.084 36-35.938v-180h287.995v98.206l-333.786 333.786h-206.204c-19.881 0-36 16.117-36 36v0 215.996c0 19.881 16.117 36 36 36v0h215.996c19.881 0 36-16.117 36-36v0-107.998h287.995v107.998c0 19.881 16.117 36 36 36v0h215.996c19.881 0 36-16.117 36-36v0-215.996c0-19.881-16.117-36-36-36v0h-215.996c-19.881 0-36 16.117-36 36v0 36h-287.995v-26.208l333.786-333.786h206.204c19.881 0 36-16.117 36-36v0-215.996c0-19.881-16.117-36-36-36v0h-215.996c-19.881 0-36 16.117-36 36v0 36h-287.995v-179.997c0-0.006 0-0.011 0-0.018 0-19.881-16.117-36-36-36-9.158 0-17.516 3.419-23.869 9.050l0.037-0.032-300.163 245.228z" />
<glyph unicode="&#xe916;" glyph-name="RightToLeft2" d="M1024 448h-663.704v-198.96c0.001-0.081 0.001-0.177 0.001-0.273 0-15.563-12.616-28.179-28.179-28.179-6.564 0-12.604 2.244-17.395 6.008l0.061-0.047-295.823 259.376 295.823 250.045c4.729 3.717 10.769 5.961 17.333 5.961 15.563 0 28.179-12.616 28.179-28.179 0-0.096 0-0.192-0.001-0.288v0.015-189.629h663.704c10.473 0 18.963-8.491 18.963-18.963v0-37.925c0-10.473-8.491-18.963-18.963-18.963v0z" />
<glyph unicode="&#xe917;" glyph-name="RightToLeft_RowOnly" d="M326.556 706.044c6.708 5.947 15.588 9.579 25.315 9.579 21.099 0 38.208-17.087 38.24-38.179v-191.204h305.921v89.214c0 14.087 11.42 25.507 25.507 25.507v0h254.946c14.087 0 25.507-11.42 25.507-25.507v0-254.946c0-14.087-11.42-25.507-25.507-25.507v0h-254.946c0 0 0 0 0 0-14.087 0-25.507 11.42-25.507 25.507 0 0.014 0 0.026 0 0.041v-0.002 89.214h-305.921v-191.201c-0.014-21.108-17.129-38.216-38.24-38.216-9.602 0-18.378 3.539-25.094 9.384l0.047-0.040-319.113 255.941z" />
<glyph unicode="&#xe918;" glyph-name="RowOnly" d="M696.524 706.054c-6.709 5.948-15.588 9.58-25.316 9.58-21.099 0-38.209-17.088-38.242-38.181v-191.212h-305.933v89.217c0 14.087-11.42 25.508-25.508 25.508v0h-254.919c-14.087 0-25.508-11.42-25.508-25.508v0-254.956c0.021-14.070 11.433-25.469 25.508-25.469 0 0 0 0 0 0h254.956c14.070 0.021 25.469 11.433 25.469 25.508 0 0 0 0 0 0v0 89.217h305.933v-191.208c0.014-21.109 17.13-38.218 38.242-38.218 9.602 0 18.379 3.54 25.095 9.384l-0.047-0.040 319.126 255.951z" />
</font>
</defs>
</svg>
