<?xml version="1.0" standalone="no"?>
<!DOCTYPE svg PUBLIC "-//W3C//DTD SVG 1.1//EN" "http://www.w3.org/Graphics/SVG/1.1/DTD/svg11.dtd" >
<svg xmlns="http://www.w3.org/2000/svg">
<metadata>
<json>
<![CDATA[
{
	"fontFamily": "spc-icons",
	"majorVersion": 1,
	"minorVersion": 0,
	"version": "Version 1.0",
	"fontId": "spc-icons",
	"psName": "spc-icons",
	"subFamily": "Regular",
	"fullName": "spc-icons",
	"description": "Font generated by IcoMoon."
}
]]>
</json>
</metadata>
<defs>
<font id="spc-icons" horiz-adv-x="1024">
<font-face units-per-em="1024" ascent="1024" descent="0" />
<missing-glyph horiz-adv-x="1024" />
<glyph unicode="&#x20;" horiz-adv-x="0" d="" />
<glyph unicode="&#x43;" glyph-name="dotdotdot" d="M0 512.197c0-98.56 106.688-160.128 192-110.848 39.616 22.848 64 65.088 64 110.848 0 98.56-106.688 160.128-192 110.848-39.616-22.848-64-65.088-64-110.848zM384 512.197c0-98.56 106.688-160.128 192-110.848 39.616 22.848 64 65.088 64 110.848 0 98.56-106.688 160.128-192 110.848-39.616-22.848-64-65.088-64-110.848zM768 512.197c0-98.56 106.688-160.128 192-110.848 39.616 22.848 64 65.088 64 110.848 0 98.56-106.688 160.128-192 110.848-39.616-22.848-64-65.088-64-110.848" />
<glyph unicode="&#x44;" glyph-name="down" d="M512 205c-30.72 0-51.2 10.24-71.68 30.72 0 0-409.6 409.6-409.6 409.6-40.96 40.96-40.96 102.4 0 143.36s102.4 40.96 143.36 0c0 0 337.92-337.92 337.92-337.92s337.92 337.92 337.92 337.92c40.96 40.96 102.4 40.96 143.36 0s40.96-102.4 0-143.36c0 0-409.6-409.6-409.6-409.6-20.48-20.48-40.96-30.72-71.68-30.72 0 0 0 0 0 0" />
<glyph unicode="&#x45;" glyph-name="download" d="M470.247 198.776c0 0 0 0 0 0 6.024-6.023 12.047-12.047 18.071-12.047 0 0 0 0 0 0 6.023 0 18.070-6.023 24.094-6.023s18.070 0 24.094 6.023c6.023 0 12.047 6.024 18.070 12.047 0 0 240.942 240.942 240.942 240.942 24.094 24.094 24.094 60.235 0 84.329s-60.236 24.094-84.33 0c0 0-138.541-138.541-138.541-138.541s0 578.259 0 578.259c0 36.141-24.094 60.235-60.235 60.235s-60.236-24.094-60.236-60.235c0 0 0-578.259 0-578.259s-138.541 138.541-138.541 138.541c-24.094 24.094-60.235 24.094-84.329 0s-24.094-60.235 0-84.329c0 0 240.941-240.942 240.941-240.942s0 0 0 0zM813.588 120.471c0 0-602.353 0-602.353 0-36.141 0-60.235-24.095-60.235-60.236s24.094-60.235 60.235-60.235c0 0 602.353 0 602.353 0 36.141 0 60.236 24.094 60.236 60.235s-24.095 60.236-60.236 60.236c0 0 0 0 0 0" />
<glyph unicode="&#x47;" glyph-name="pencil" d="M867.709 995.702c-38.397 38.397-89.594 38.397-127.992 0 0 0-633.562-633.562-633.562-633.562s-102.393-294.382-102.393-294.382c-12.8-51.197 12.799-76.796 63.996-63.996 0 0 294.382 102.393 294.382 102.393s633.562 633.562 633.562 633.562c38.397 38.398 38.397 95.994 0 127.992 0 0-127.993 127.993-127.993 127.993zM150.953 304.544c0 0 140.791-159.991 140.791-159.991s-127.992-44.797-127.992-44.797c0 0-57.597 70.396-57.597 70.396s44.798 134.392 44.798 134.392zM330.142 182.951c0 0-134.392 153.591-134.392 153.591s511.969 499.169 511.969 499.169c0 0 127.992-127.992 127.992-127.992s-505.569-524.768-505.569-524.768zM880.509 726.918c0 0-140.792 140.791-140.792 140.791s31.998 31.999 31.998 31.999c19.199 19.198 44.798 19.198 63.996 0 0 0 76.796-70.396 76.796-70.396 19.199-19.199 19.199-44.797 0-63.996 0 0-31.998-38.398-31.998-38.398" />
<glyph unicode="&#x48;" glyph-name="help" data-tags="S_HelpOutline_24_N" d="M512 926.232c228.773 0 414.232-185.457 414.232-414.232s-185.457-414.232-414.232-414.232c-228.773 0-414.232 185.457-414.232 414.232 0.263 228.667 185.564 413.968 414.206 414.232zM512 1024c-282.77 0-512-229.23-512-512s229.23-512 512-512c282.77 0 512 229.23 512 512s-229.23 512-512 512c0 0 0 0 0 0zM659.271 649.237c0-90.564-116.911-142.433-116.911-189.363 0.976-16.397 6.375-31.36 15.010-43.928 0.252-0.369 0.515-1.183 0.515-2.057 0-2.359-1.913-4.271-4.271-4.271-0.194 0-0.386 0.013-0.573 0.039l-72.431-0.002c-0.42-0.059-0.905-0.092-1.398-0.092-3.45 0-6.516 1.64-8.463 4.183-12.941 15.004-20.964 34.529-21.424 55.915-0.001 65.961 108.059 106.304 108.059 172.169-2.559 34.239-30.97 61.050-65.642 61.050-3.933 0-7.786-0.345-11.53-1.007-0.439 0.069-1.427 0.075-2.416 0.075-35.056 0-68.341-7.586-98.301-21.207 0.891 0.145 0.13-0.133-0.696-0.133-1.989 0-3.602 1.612-3.602 3.602 0 0.152 0.010 0.302 0.028 0.449l-0.001 65.024c-0.118 0.511-0.186 1.097-0.186 1.701 0 2.709 1.369 5.099 3.452 6.515 34.552 16.291 75.018 25.791 117.701 25.791 1.758 0 3.512-0.016 5.263-0.048 96.065-0.151 157.814-55.518 157.814-134.402zM454.265 286.926c0 31.83 25.803 57.633 57.633 57.633s57.633-25.803 57.633-57.633c0.101-1.233 0.158-2.668 0.158-4.117 0-29.613-24.006-53.619-53.619-53.619-1.432 0-2.851 0.057-4.255 0.166-0.829-0.080-2.014-0.117-3.208-0.117-30.068 0-54.441 24.374-54.441 54.441 0 1.16 0.036 2.311 0.107 3.453z" />
<glyph unicode="&#x4a;" glyph-name="left" d="M205 512c0-30.72 10.24-51.2 30.72-71.68 0 0 409.6-409.6 409.6-409.6 40.96-40.96 102.4-40.96 143.36 0s40.96 102.4 0 143.36c0 0-337.92 337.92-337.92 337.92s337.92 337.92 337.92 337.92c40.96 40.96 40.96 102.4 0 143.36s-102.4 40.96-143.36 0c0 0-409.6-409.6-409.6-409.6-20.48-20.48-30.72-40.96-30.72-71.68 0 0 0 0 0 0" />
<glyph unicode="&#x4b;" glyph-name="down_big" d="M922.292 517.753c-34.517 34.517-103.55 34.517-138.067 0 0 0-161.079-161.079-161.079-161.079s0 552.27 0 552.27c0 69.034-46.022 115.056-115.056 115.056s-115.056-46.022-115.056-115.056c0 0 0-552.27 0-552.27s-161.079 161.079-161.079 161.079c-34.517 34.517-103.551 34.517-138.067 0s-34.517-103.551 0-138.068c0 0 345.168-345.168 345.168-345.168 23.011-23.011 46.023-34.517 69.034-34.517s46.022 11.506 69.034 34.517c0 0 345.168 345.168 345.168 345.168 46.023 34.517 46.023 103.551 0 138.068 0 0 0 0 0 0" />
<glyph unicode="&#x51;" glyph-name="download_cloud" d="M711.68 180.7c0 0-163.84-163.84-163.84-163.84s-10.24-5.12-15.36-10.24c0 0-15.36-5.12-15.36-5.12s-5.12 0-5.12 0c0 0-5.12 0-10.24 0s-5.12 0-10.24 5.12c-5.12 0-10.24 5.12-10.24 10.24 0 0-5.12 5.12-5.12 5.12-10.24 15.36-102.4 102.4-158.72 158.72-20.48 20.48-20.48 46.080 0 66.56s46.080 20.48 61.44 0c20.48-25.6 81.92-71.68 81.92-87.040 0 0 0 399.36 0 399.36 0 25.6 25.6 46.080 51.2 46.080s51.2-20.48 51.2-46.080c0 0 0-399.36 0-399.36s81.92 87.040 81.92 87.040c10.24 10.24 20.48 15.36 30.72 15.36s25.6-5.12 30.72-15.36c20.48-20.48 20.48-51.2 5.12-66.56 0 0 0 0 0 0zM819.2 774.62c0 0-5.12 5.12-5.12 5.12-30.72 148.48-184.32 261.12-343.040 240.64-122.88-15.36-240.64-102.4-266.24-230.4 0 0 0-5.12-5.12-5.12-117.76-10.24-199.68-133.12-199.68-261.12s87.040-245.76 204.8-266.24c5.12 20.48 15.36 40.96 35.84 56.32 20.48 20.48 40.96 30.72 66.56 35.84-5.12 10.24-15.36 15.36-30.72 15.36-5.12 0-5.12 0-5.12 0s-35.84 0-35.84 0c-76.8 0-148.48 87.040-148.48 168.96 0 71.68 40.96 148.48 107.52 158.72 5.12 0 15.36 0 25.6 0 25.6 0 51.2-10.24 76.8-25.6 5.12-5.12 5.12 0 5.12 5.12-15.36 25.6-15.36 51.2-15.36 76.8 0 15.36 0 25.6 5.12 40.96 25.6 81.92 117.76 143.36 204.8 148.48 102.4 5.12 204.8-71.68 230.4-158.72 5.12-15.36 5.12-30.72 5.12-46.080 0-20.48-5.12-40.96-10.24-61.44 0-5.12 5.12-5.12 5.12-5.12 20.48 15.36 51.2 25.6 76.8 25.6 10.24 0 15.36 0 25.6 0 66.56-10.24 112.64-87.040 112.64-158.72 0-76.8-81.92-158.72-153.6-158.72 0 0-46.080 0-46.080 0-10.24 0-20.48-5.12-25.6-15.36 25.6-5.12 46.080-20.48 66.56-35.84 15.36-15.36 30.72-35.84 35.84-56.32 117.76 15.36 204.8 138.24 204.8 266.24 0 117.76-81.92 225.28-204.8 240.64 0 0 0 0 0 0" />
<glyph unicode="&#x52;" glyph-name="right" d="M819 512c0 30.72-10.24 51.2-30.72 71.68 0 0-409.6 409.6-409.6 409.6-40.96 40.96-102.4 40.96-143.36 0s-40.96-102.4 0-143.36c0 0 337.92-337.92 337.92-337.92s-337.92-337.92-337.92-337.92c-40.96-40.96-40.96-102.4 0-143.36s102.4-40.96 143.36 0c0 0 409.6 409.6 409.6 409.6 20.48 20.48 30.72 40.96 30.72 71.68 0 0 0 0 0 0" />
<glyph unicode="&#x53;" glyph-name="search" d="M597.833 1024c-233.244 0-426.666-193.422-426.666-426.667 0-85.333 22.755-164.977 68.266-233.244-79.644-79.645-193.422-193.422-204.8-204.8-17.066-17.067-34.133-34.133-34.133-62.578s17.067-45.511 34.133-62.578c17.067-17.066 28.445-34.133 62.578-34.133s45.511 17.067 62.578 34.133c11.378 11.378 130.844 130.845 204.8 204.8 68.267-45.511 147.911-68.266 233.244-68.266 233.245 0 426.667 193.422 426.667 426.666s-193.422 426.667-426.667 426.667c0 0 0 0 0 0zM597.833 290.133c-170.666 0-307.2 136.534-307.2 307.2s136.534 307.2 307.2 307.2c170.667 0 307.2-136.533 307.2-307.2s-136.533-307.2-307.2-307.2c0 0 0 0 0 0" />
<glyph unicode="&#x54;" glyph-name="star_outline" d="M512.154 789.752c0 0 93.699-200.785 93.699-200.785s207.477-33.464 207.477-33.464c0 0-147.242-153.934-147.242-153.934s33.464-220.863 33.464-220.863c0 0-187.398 107.085-187.398 107.085s-187.399-100.392-187.399-100.392c0 0 33.464 220.862 33.464 220.862s-147.242 153.935-147.242 153.935c0 0 207.477 33.464 207.477 33.464s93.7 194.092 93.7 194.092zM512.154 1024c0 0-93.7-194.092-93.7-194.092s-66.928-147.241-66.928-147.241c0 0-153.934-26.772-153.934-26.772s-194.092-26.771-194.092-26.771c0 0 133.856-140.549 133.856-140.549s113.778-120.47 113.778-120.47c0 0-26.771-167.321-26.771-167.321s-33.464-200.784-33.464-200.784c0 0 180.706 100.392 180.706 100.392s140.549 73.621 140.549 73.621c0 0 140.549-73.621 140.549-73.621s180.705-100.392 180.705-100.392c0 0-33.464 200.784-33.464 200.784s-26.771 167.321-26.771 167.321c0 0 113.778 120.47 113.778 120.47s133.856 140.549 133.856 140.549c0 0-194.091 26.771-194.091 26.771s-153.935 26.772-153.935 26.772c0 0-66.928 147.241-66.928 147.241s-93.699 194.092-93.699 194.092c0 0 0 0 0 0s0 0 0 0" />
<glyph unicode="&#x55;" glyph-name="up" d="M512 819c-30.72 0-51.2-10.24-71.68-30.72 0 0-409.6-409.6-409.6-409.6-40.96-40.96-40.96-102.4 0-143.36s102.4-40.96 143.36 0c0 0 337.92 337.92 337.92 337.92s337.92-337.92 337.92-337.92c40.96-40.96 102.4-40.96 143.36 0s40.96 102.4 0 143.36c0 0-409.6 409.6-409.6 409.6-20.48 20.48-40.96 30.72-71.68 30.72 0 0 0 0 0 0" />
<glyph unicode="&#x58;" glyph-name="x" data-tags="S_Close_24_N" d="M854.665 983.147l-342.665-342.665-342.665 342.665c-5.487 5.486-13.050 8.862-21.41 8.862s-15.93-3.39-21.41-8.862l-85.649-85.649c-5.486-5.487-8.862-13.050-8.862-21.41s3.39-15.93 8.862-21.41l342.665-342.665-342.665-342.665c-5.486-5.487-8.862-13.050-8.862-21.41s3.39-15.93 8.862-21.41l85.649-85.649c5.487-5.486 13.050-8.862 21.41-8.862s15.93 3.39 21.41 8.862l342.665 342.665 342.665-342.665c5.487-5.486 13.050-8.862 21.41-8.862s15.93 3.39 21.41 8.862l85.649 85.649c5.486 5.487 8.862 13.050 8.862 21.41s-3.39 15.93-8.862 21.41l-342.665 342.665 342.665 342.665c5.486 5.487 8.862 13.050 8.862 21.41s-3.39 15.93-8.862 21.41l-85.649 85.649c-5.487 5.486-13.050 8.862-21.41 8.862s-15.93-3.39-21.41-8.862z" />
<glyph unicode="&#x5a;" glyph-name="trash" d="M486.8 211.2c0-12.8 12.8-25.6 25.6-25.6s25.6 12.8 25.6 25.6c0 0 0 460.8 0 460.8 0 12.8-12.8 25.6-25.6 25.6s-25.6-12.8-25.6-25.6c0 0 0-460.8 0-460.8zM608.4 211.2c0-12.8 12.8-25.6 25.6-25.6s25.6 12.8 25.6 25.6c0 0 19.2 467.2 19.2 467.2 0 12.8-12.8 25.6-25.6 25.6s-25.6-19.2-25.6-32c0 0-19.2-460.8-19.2-460.8zM371.6 211.2c0-12.8 12.8-25.6 25.6-25.6s25.6 12.8 25.6 25.6c0 0-25.6 460.8-25.6 460.8 0 12.8-12.8 25.6-25.6 25.6s-25.6-12.8-25.6-25.6c0 0 25.6-460.8 25.6-460.8zM397.2 928c0 0 230.4 0 230.4 0s0-44.8 0-44.8c0 0-230.4 0-230.4 0s0 44.8 0 44.8c0 0 0 0 0 0zM256.4 96c0 0-44.8 697.6-44.8 697.6s608 0 608 0c0 0-51.2-697.6-51.2-697.6s-512 0-512 0c0 0 0 0 0 0zM115.6 793.6c0 0 44.8-697.6 44.8-697.6 0-51.2 44.8-96 96-96 0 0 512 0 512 0 51.2 0 96 44.8 96 96 0 0 44.8 697.6 44.8 697.6s44.8 0 44.8 0c25.6 0 44.8 19.2 44.8 44.8s-19.2 44.8-44.8 44.8c0 0-230.4 0-230.4 0s0 44.8 0 44.8c0 51.2-44.8 96-96 96 0 0-230.4 0-230.4 0-51.2 0-96-44.8-96-96 0 0 0-44.8 0-44.8s-230.4 0-230.4 0c-25.6 0-44.8-19.2-44.8-44.8s19.2-44.8 44.8-44.8c0 0 44.8 0 44.8 0s0 0 0 0" />
<glyph unicode="&#xe900;" glyph-name="warn" data-tags="S_Alert_24_N" d="M1017.85 138.609l-462.343 840.6c-8.623 15.442-24.866 25.712-43.508 25.712s-34.884-10.269-43.378-25.46l-462.472-840.852c-3.87-6.906-6.15-15.157-6.15-23.939 0-27.427 22.231-49.662 49.657-49.667h924.685c27.426 0.005 49.657 22.239 49.657 49.667 0 8.783-2.279 17.032-6.279 24.191zM512 139.503c-41.145 0-74.499 33.355-74.499 74.499s33.355 74.499 74.499 74.499c41.145 0 74.499-33.355 74.499-74.499s-33.355-74.499-74.499-74.499zM452.401 387.834v347.664c0 13.715 11.118 24.833 24.833 24.833h69.532c13.715 0 24.833-11.118 24.833-24.833v-347.664c0-13.715-11.118-24.833-24.833-24.833h-69.532c-13.715 0-24.833 11.118-24.833 24.833z" />
<glyph unicode="&#xe901;" glyph-name="check" data-tags="S_Checkmark_24_N" d="M1002.671 913.74l-84.286 65.623c-4.744 3.71-10.796 5.944-17.375 5.944-9.042 0-17.094-4.229-22.285-10.82l-501.891-644.664-244.285 244.229c-5.129 5.128-12.221 8.3-20.052 8.3s-14.915-3.172-20.052-8.3l-76.401-76.401c-5.128-5.129-8.3-12.221-8.3-20.052s3.172-14.915 8.3-20.052l352.565-353.017c5.13-5.133 12.226-8.316 20.060-8.316 9.059 0 17.126 4.245 22.321 10.858l596.672 766.839c3.727 4.758 5.98 10.824 5.98 17.413 0 9.078-4.269 17.164-10.904 22.352z" />
<glyph unicode="&#xe903;" glyph-name="plus" data-tags="S_Add_24_N" d="M991.662 612.605h-375.462v375.462c0 18.848-15.28 34.135-34.135 34.135h-136.534c-18.848 0-34.135-15.28-34.135-34.135v-375.462h-375.462c-18.848 0-34.135-15.28-34.135-34.135v-136.534c0-18.848 15.28-34.135 34.135-34.135h375.462v-375.462c0-18.848 15.28-34.135 34.135-34.135h136.534c18.848 0 34.135 15.28 34.135 34.135v375.462h375.462c18.848 0 34.135 15.28 34.135 34.135v136.534c0 18.848-15.28 34.135-34.135 34.135z" />
<glyph unicode="&#xe904;" glyph-name="check_circle" data-tags="S_CheckmarkCircle_24_N" d="M512 1024c-282.77 0-512-229.23-512-512s229.23-512 512-512c282.77 0 512 229.23 512 512s-229.23 512-512 512c0 0 0 0 0 0zM835.203 700.179v0l-374.198-479.942c-5.327-6.789-13.333-11.266-22.398-11.831l-1.992-0.005c-0.007 0-0.016 0-0.024 0-8.533 0-16.256 3.461-21.845 9.056l-200.324 200.684c-5.595 5.589-9.055 13.312-9.055 21.844s3.46 16.255 9.055 21.844l34.116 34.116c5.586 5.579 13.299 9.030 21.818 9.030s16.232-3.45 21.818-9.030l137.494-137.854 319.035 409.138c5.705 7.2 14.447 11.778 24.259 11.778 7.249 0 13.914-2.498 19.182-6.68l37.655-28.767c7.293-5.702 11.937-14.501 11.937-24.385 0-7.193-2.46-13.811-6.585-19.060z" />
<glyph unicode="&#xe905;" glyph-name="close_circle" data-tags="S_CloseCircle_24_N" d="M874.054 874.054c-92.655 92.661-220.659 149.972-362.049 149.972-282.77 0-512-229.23-512-512s229.23-512 512-512c141.39 0 269.395 57.312 362.049 149.972 92.647 92.653 149.951 220.648 149.951 362.029s-57.303 269.376-149.951 362.029zM712.118 268.247c-4.655-4.654-11.087-7.533-18.191-7.533s-13.534 2.879-18.191 7.533l-163.737 163.686-163.737-163.686c-4.655-4.654-11.087-7.533-18.191-7.533s-13.534 2.879-18.191 7.533l-43.635 43.635c-4.654 4.655-7.533 11.087-7.533 18.191s2.879 13.534 7.533 18.191l163.686 163.737-163.737 163.737c-4.654 4.655-7.533 11.087-7.533 18.191s2.879 13.534 7.533 18.191l43.687 43.687c4.655 4.654 11.087 7.533 18.191 7.533s13.534-2.879 18.191-7.533l163.737-163.737 163.737 163.737c4.655 4.654 11.087 7.533 18.191 7.533s13.534-2.879 18.191-7.533l43.635-43.635c4.654-4.655 7.533-11.087 7.533-18.191s-2.879-13.534-7.533-18.191l-163.686-163.789 163.686-163.737c4.654-4.655 7.533-11.087 7.533-18.191s-2.879-13.534-7.533-18.191z" />
<glyph unicode="&#xe906;" glyph-name="plus_circle" data-tags="S_AddCircle_24_N" d="M512 1024c-282.77 0-512-229.23-512-512s229.23-512 512-512c282.77 0 512 229.23 512 512s-229.23 512-512 512c0 0 0 0 0 0zM820.744 486.272c0-14.209-11.519-25.728-25.728-25.728h-231.558v-231.558c0-14.209-11.519-25.728-25.728-25.728h-51.458c-14.209 0-25.728 11.519-25.728 25.728v231.558h-231.558c-14.209 0-25.728 11.519-25.728 25.728v51.458c0 14.209 11.519 25.728 25.728 25.728h231.558v231.558c0 14.209 11.519 25.728 25.728 25.728h51.458c14.209 0 25.728-11.519 25.728-25.728v-231.558h231.558c14.209 0 25.728-11.519 25.728-25.728v-51.458z" />
<glyph unicode="&#xe907;" glyph-name="star" data-tags="S_StarFill_24_N" d="M529.664 965.504l117.419-310.613 331.691-15.659c11.737-0.502 21.062-10.139 21.062-21.954 0-6.93-3.208-13.11-8.22-17.138l-259.243-207.607 87.552-320.299c0.504-1.754 0.793-3.768 0.793-5.85 0-12.136-9.838-21.973-21.973-21.973-4.505 0-8.694 1.356-12.18 3.682l-277.466 182.307-277.589-182.443c-3.406-2.276-7.594-3.631-12.1-3.631-12.136 0-21.973 9.838-21.973 21.973 0 2.082 0.29 4.096 0.831 6.005l87.6 320.229-259.2 207.573c-5.055 4.061-8.262 10.241-8.262 17.171 0 11.815 9.325 21.452 21.017 21.953l331.779 15.703 117.419 310.613c3.256 8.317 11.21 14.1 20.515 14.1 9.321 0 17.286-5.803 20.479-13.993z" />
<glyph unicode="&#xe908;" glyph-name="heart" data-tags="S_Heart_24_N" d="M744.704 935.577c-98.539-5.993-183.319-59.846-231.98-138.42-50.108 78.574-134.887 132.427-232.605 138.379-155.072 0.040-280.117-125.005-280.117-279.255 0-253.081 512-605.082 512-605.082s512 358.4 512 605.082c0 154.25-125.045 279.296-279.296 279.296z" />
<glyph unicode="&#xe909;" glyph-name="info" data-tags="S_InfoOutline_24_N" d="M512 926.232c228.773 0 414.232-185.457 414.232-414.232s-185.457-414.232-414.232-414.232c-228.773 0-414.232 185.457-414.232 414.232 0.263 228.667 185.564 413.968 414.206 414.232zM512 1024c-282.77 0-512-229.23-512-512s229.23-512 512-512c282.77 0 512 229.23 512 512s-229.23 512-512 512c0 0 0 0 0 0zM449.222 750.093c0 31.83 25.803 57.633 57.633 57.633s57.633-25.803 57.633-57.633c0.104-1.251 0.163-2.706 0.163-4.176 0-29.613-24.006-53.619-53.619-53.619-1.47 0-2.926 0.059-4.366 0.175-0.794-0.076-1.943-0.112-3.101-0.112-30.068 0-54.441 24.374-54.441 54.441 0 1.158 0.036 2.306 0.107 3.446zM602.051 306.17h-38.593v283.016c0 14.209-11.519 25.728-25.728 25.728h-115.779c-7.105 0-12.865-5.76-12.865-12.865v-25.728c0-7.105 5.76-12.865 12.865-12.865h38.593v-257.286h-38.593c-7.105 0-12.865-5.76-12.865-12.865v-25.728c0-7.105 5.76-12.865 12.865-12.865h180.1c7.105 0 12.865 5.76 12.865 12.865v25.728c0 7.105-5.76 12.865-12.865 12.865z" />
<glyph unicode="&#xe90b;" glyph-name="creativecloud" data-tags="S_CreativeCloud_24_N" d="M439.043 733.597c18.752-7.54 34.814-16.021 49.859-25.922 38.146 32.065 88.47 51.068 143.233 51.068 127.937 0 231.649-103.714 231.649-231.649s-103.714-231.649-231.649-231.649c-64.026 0-121.987 25.976-163.916 67.964l-135.347 135.77c-4.643 4.769-11.125 7.726-18.298 7.726-14.1 0-25.531-11.43-25.531-25.531 0-6.928 2.759-13.21 7.238-17.811l136.231-136.231c51.155-51.123 121.807-82.741 199.845-82.741 156.139 0 282.715 126.576 282.715 282.715s-126.576 282.715-282.715 282.715c-74.843 0-142.892-29.082-193.466-76.562zM106.578 472.727c0.026-126.204 102.342-228.502 228.549-228.502 0.033 0 0.066 0 0.099 0h119.413c-23.781 15.034-44.389 31.849-62.77 50.834l-56.461 0.090c-96.849 1.625-174.736 80.518-174.736 177.601s77.887 175.976 174.584 177.6c1.101 0.021 2.219 0.032 3.339 0.032 43.661 0 83.459-16.546 113.463-43.707l102.691-105.384c4.643-4.769 11.125-7.726 18.298-7.726 14.1 0 25.531 11.43 25.531 25.531 0 6.928-2.759 13.21-7.238 17.811l-102.877 105.648c-39.325 36.522-92.195 58.933-150.3 58.933-1.101 0-2.2-0.008-3.297-0.024 0.152 0.002 0.135 0.002 0.119 0.002-126.146 0-228.408-102.261-228.408-228.408 0-0.050 0-0.099 0-0.149v0.008zM632.029 880.309c195.034-0.031 353.127-158.144 353.127-353.182 0-174.378-126.375-319.24-292.535-347.995s-49.083-5.375-87.84-5.375h-269.561c-165.181 0-299.086 133.906-299.086 299.086s133.906 299.086 299.086 299.086c0.077 0 0.17 0 0.261 0 13.703 0 27.199-0.887 40.433-2.608l15.116 15.81c62.745 58.957 147.448 95.178 240.613 95.178 0.135 0 0.271 0 0.407 0zM632.029 917.892c-0.192 0-0.42 0-0.646 0-103.041 0-196.729-40.046-266.349-105.423l-4.068-3.801c-8.691 0.516-17.288 0.846-25.932 0.846-185.897-0.054-336.575-150.765-336.575-336.67 0-185.937 150.732-336.67 336.67-336.67 0.033 0 0.066 0 0.099 0h269.602c40.119 0 87.896 5.074 89.916 5.308 186.999 31.415 327.713 192.097 327.713 385.644 0 215.695-174.76 390.573-390.41 390.764z" />
<glyph unicode="&#xe90c;" glyph-name="properties" data-tags="S_Properties_24_N" d="M1002.667 810.667h-338.475c2.158-12.745 3.457-27.504 3.583-42.543-0.126-15.286-1.425-30.046-3.809-44.438l338.7 1.648c11.782 0 21.333 9.551 21.333 21.333v42.667c0 11.782-9.551 21.333-21.333 21.333zM100.267 768c0.127 15.163 1.426 29.922 3.809 44.315l-82.743-1.648c-11.782 0-21.333-9.551-21.333-21.333v-42.667c0-11.782 9.551-21.333 21.333-21.333h82.475c-2.146 12.754-3.43 27.516-3.541 42.558zM172.8 768c0-116.643 94.557-211.2 211.2-211.2s211.2 94.557 211.2 211.2c0 116.643-94.557 211.2-211.2 211.2s-211.2-94.557-211.2-211.2zM250.325 768c0 73.826 59.848 133.675 133.675 133.675s133.675-59.848 133.675-133.675c0-73.826-59.848-133.675-133.675-133.675s-133.675 59.848-133.675 133.675zM21.333 298.667h338.475c-2.268-12.827-3.565-27.596-3.565-42.667s1.297-29.839 3.785-44.199l-338.694 1.533c-11.782 0-21.333 9.551-21.333 21.333v42.667c0 11.782 9.551 21.333 21.333 21.333zM923.733 256c-0.127 15.163-1.426 29.922-3.809 44.315l82.743-1.648c11.782 0 21.333-9.551 21.333-21.333v-42.667c0-11.782-9.551-21.333-21.333-21.333h-82.475c2.146 12.754 3.43 27.516 3.541 42.558zM640 467.2c-116.643 0-211.2-94.557-211.2-211.2s94.557-211.2 211.2-211.2c116.643 0 211.2 94.557 211.2 211.2s-94.557 211.2-211.2 211.2zM640 122.325c-73.826 0-133.675 59.848-133.675 133.675s59.848 133.675 133.675 133.675c73.826 0 133.675-59.848 133.675-133.675s-59.848-133.675-133.675-133.675z" />
<glyph unicode="&#xe90d;" glyph-name="link" data-tags="S_Link_24_N" d="M947.503 947.503c-47.532 47.531-113.196 76.929-185.726 76.929s-138.195-29.398-185.726-76.929c-14.234-14.234-90.147-88.77-130.048-128.53 6.306 0.466 13.662 0.732 21.079 0.732 41.878 0 81.779-8.466 118.084-23.779 16.98 19.727 62.813 64.041 70.688 71.917 26.688 24.788 62.57 39.998 102.006 39.998 82.881 0 150.071-67.189 150.071-150.071 0-39.482-15.247-75.403-40.174-102.196l-194.442-194.436c-29.442-29.317-70.049-47.44-114.888-47.44-41.299 0-79.008 15.375-107.714 40.714-19.407 15.477-34.863 35.453-44.848 58.363-6.344-2.362-11.485-6.218-16.056-10.66l-59.812-62.658c12.538-23.449 27.473-43.604 44.913-61.282 102.548-102.548 288.156-86.512 390.734 16.066l181.812 181.812c47.545 47.534 76.953 113.208 76.953 185.75 0 72.518-29.389 138.173-76.906 185.703zM436.087 225.618c-18.979-18.979-59.876-61.68-67.752-69.508-26.961-26.072-63.739-42.14-104.269-42.14-82.881 0-150.071 67.189-150.071 150.071 0 40.542 16.076 77.329 42.203 104.334l194.773 194.865c29.2 29.237 69.558 47.323 114.142 47.323 41.179 0 78.754-15.429 107.259-40.822 17.974-16.109 31.896-36.695 40.003-60.004 6.249 2.335 11.376 6.191 15.933 10.627l63.466 62.802c-12.538 23.449-27.473 43.604-44.913 61.282-48.151 47.013-114.11 76.034-186.846 76.034-73.616 0-140.289-29.726-188.67-77.831l-194.847-194.705c-47.012-47.443-76.061-112.756-76.061-184.855 0-145.063 117.597-262.66 262.66-262.66 72.098 0 137.411 29.049 184.874 76.080 14.214 14.214 85.382 87.090 125.094 126.85-6.287-0.463-13.62-0.727-21.015-0.727-41.83 0-81.688 8.447-117.961 23.727z" />
<glyph unicode="&#xe90e;" glyph-name="unlink" data-tags="S_UnLink_24_N" d="M295.063 779.899l-47.266-45.463-168.391 165.594 47.266 45.463 168.391-165.594zM948.196 123.97l-47.312-45.463-167.49 168.581 47.312 45.463 167.49-168.581zM292.551 1024h73.15v-146.299h-73.15v146.299zM0 731.449h146.299v-73.15h-146.299v73.15zM877.701 365.701h146.299v-73.15h-146.299v73.15zM658.299 146.299h73.15v-146.299h-73.15v146.299zM940.942 940.942c-46.816 46.811-111.487 75.763-182.921 75.763s-136.107-28.952-182.922-75.763c-9.481-9.481-104.96-104.296-155.164-153.979l78.507-78.507c51.769 51.342 150.519 149.57 155.022 154.121 26.752 26.752 63.71 43.299 104.533 43.299 81.646 0 147.832-66.187 147.832-147.832 0-40.823-16.547-77.781-43.299-104.533l-154.596-154.548 78.412-78.412 154.596 154.548c46.811 46.816 75.763 111.487 75.763 182.921s-28.952 136.107-75.763 182.922zM524.516 316.587c-51.010-51.484-149.381-150.519-154.027-155.164-26.752-26.752-63.71-43.299-104.533-43.299-81.646 0-147.832 66.187-147.832 147.832 0 40.823 16.547 77.781 43.299 104.533l154.548 154.596-78.317 78.412-154.548-154.596c-45.76-46.631-74.006-110.59-74.006-181.147 0-142.878 115.824-258.702 258.702-258.702 70.556 0 134.514 28.246 181.187 74.044 9.868 9.869 104.256 105.158 153.844 155.268z" />
<glyph unicode="&#xe90f;" glyph-name="settings" data-tags="S_Settings_24_N" d="M924.8 587.68h-68.8c-5.234 0.010-9.624 3.628-10.811 8.5-8.977 34.865-22.058 65.408-39.031 93.322-0.193 0.158-0.815 2.184-0.815 4.357 0 3.084 1.253 5.872 3.274 7.893l48.619 48.619c8.298 8.301 13.428 19.766 13.428 32.429s-5.134 24.129-13.428 32.429l-42.151 42.151c-8.301 8.298-19.766 13.428-32.429 13.428s-24.129-5.134-32.429-13.428l-48.619-48.619c-2.017-2.022-4.809-3.275-7.893-3.275-2.173 0-4.199 0.622-5.914 1.699-26.357 16.098-56.897 29.179-89.317 37.61-7.217 1.767-10.748 6.068-10.812 11.202v68.806c0 25.332-20.535 45.867-45.867 45.867h-59.627c-25.332 0-45.867-20.535-45.867-45.867v-68.8c-0.010-5.234-3.628-9.624-8.5-10.811-34.864-8.969-65.408-22.054-93.32-39.030-0.159-0.194-2.186-0.816-4.359-0.816-3.084 0-5.872 1.253-7.893 3.274l-48.755 48.802c-8.301 8.298-19.766 13.428-32.429 13.428s-24.129-5.134-32.429-13.428l-42.151-42.151c-8.298-8.301-13.428-19.766-13.428-32.429s5.134-24.129 13.428-32.429l48.619-48.619c2.022-2.017 3.275-4.809 3.275-7.893 0-2.173-0.622-4.199-1.699-5.914-16.094-26.357-29.175-56.896-37.61-89.315-1.725-7.322-6.115-10.94-11.348-10.95h-68.525c-25.332 0-45.867-20.535-45.867-45.867v-59.627c0-25.332 20.535-45.867 45.867-45.867h68.8c5.234-0.010 9.624-3.628 10.811-8.5 8.977-34.865 22.058-65.408 39.031-93.322 0.193-0.158 0.815-2.184 0.815-4.357 0-3.084-1.253-5.872-3.274-7.893l-48.802-48.802c-8.298-8.301-13.428-19.766-13.428-32.429s5.134-24.129 13.428-32.429l42.151-42.151c8.301-8.298 19.766-13.428 32.429-13.428s24.129 5.134 32.429 13.428l48.619 48.619c2.017 2.022 4.809 3.275 7.893 3.275 2.173 0 4.199-0.622 5.914-1.699 26.357-16.094 56.896-29.175 89.315-37.61 7.322-1.725 10.94-6.115 10.95-11.348v-68.525c0-25.332 20.535-45.867 45.867-45.867h59.627c25.332 0 45.867 20.535 45.867 45.867v68.8c0.010 5.234 3.628 9.624 8.5 10.811 34.865 8.977 65.408 22.058 93.322 39.031 0.158 0.193 2.184 0.815 4.357 0.815 3.084 0 5.872-1.253 7.893-3.274l48.619-48.619c8.301-8.298 19.766-13.428 32.429-13.428s24.129 5.134 32.429 13.428l42.151 42.151c8.298 8.301 13.428 19.766 13.428 32.429s-5.134 24.129-13.428 32.429l-48.619 48.619c-2.022 2.017-3.275 4.809-3.275 7.893 0 2.173 0.622 4.199 1.699 5.914 16.094 26.357 29.175 56.896 37.61 89.315 1.771 7.232 6.094 10.775 11.252 10.814h68.804c25.332 0 45.867 20.535 45.867 45.867v59.627c0 25.332-20.535 45.867-45.867 45.867zM512 340c-94.994 0-172 77.006-172 172s77.006 172 172 172c94.994 0 172-77.006 172-172s-77.006-172-172-172z" />
<glyph unicode="&#xe910;" glyph-name="wrench" data-tags="S_Wrench_24_N" d="M167.657 953.586c7.155 6.335 16.457 10.393 26.69 10.962 17.7 1.754 202.164 34.468 276.289-36.207 41.632-35.781 68.387-87.862 70.288-146.226 2.318-59.023 11.765-114.588 27.513-167.435 13.023-28.855 28.341-57.452 45.887-84.47l360.583-360.757s36.306-52.805-34.037-123.621-119.698-32.194-119.698-32.194l-376.017 382.919c-20.245 27.807-48.054 48.998-80.405 60.702-49.173 13.281-122.212 8.697-183.667 43.443-60.607 49.331-107.461 113.311-135.414 186.622-4.044 25.922-5.746 49.653-5.746 49.653 1.201 2.039 3.386 3.386 5.884 3.386 1.42 0 2.739-0.434 3.83-1.179 6.075-3.955 171.77-97.086 171.77-97.086s42.547-11.393 120.359 67.271c33.092 111.566 6.666 128.727 6.666 128.727l-171.085 105.799z" />
<glyph unicode="" glyph-name="wrench" data-tags="S_Wrench_24_N" d="M167.657 953.586c7.155 6.335 16.457 10.393 26.69 10.962 17.7 1.754 202.164 34.468 276.289-36.207 41.632-35.781 68.387-87.862 70.288-146.226 2.318-59.023 11.765-114.588 27.513-167.435 13.023-28.855 28.341-57.452 45.887-84.47l360.583-360.757s36.306-52.805-34.037-123.621-119.698-32.194-119.698-32.194l-376.017 382.919c-20.245 27.807-48.054 48.998-80.405 60.702-49.173 13.281-122.212 8.697-183.667 43.443-60.607 49.331-107.461 113.311-135.414 186.622-4.044 25.922-5.746 49.653-5.746 49.653 1.201 2.039 3.386 3.386 5.884 3.386 1.42 0 2.739-0.434 3.83-1.179 6.075-3.955 171.77-97.086 171.77-97.086s42.547-11.393 120.359 67.271c33.092 111.566 6.666 128.727 6.666 128.727l-171.085 105.799z" />
<glyph unicode="wrench" glyph-name="wrench" data-tags="S_Wrench_24_N" d="M167.657 953.586c7.155 6.335 16.457 10.393 26.69 10.962 17.7 1.754 202.164 34.468 276.289-36.207 41.632-35.781 68.387-87.862 70.288-146.226 2.318-59.023 11.765-114.588 27.513-167.435 13.023-28.855 28.341-57.452 45.887-84.47l360.583-360.757s36.306-52.805-34.037-123.621-119.698-32.194-119.698-32.194l-376.017 382.919c-20.245 27.807-48.054 48.998-80.405 60.702-49.173 13.281-122.212 8.697-183.667 43.443-60.607 49.331-107.461 113.311-135.414 186.622-4.044 25.922-5.746 49.653-5.746 49.653 1.201 2.039 3.386 3.386 5.884 3.386 1.42 0 2.739-0.434 3.83-1.179 6.075-3.955 171.77-97.086 171.77-97.086s42.547-11.393 120.359 67.271c33.092 111.566 6.666 128.727 6.666 128.727l-171.085 105.799z" />
<glyph unicode="warn" glyph-name="warn" data-tags="S_Alert_24_N" d="M1017.85 138.609l-462.343 840.6c-8.623 15.442-24.866 25.712-43.508 25.712s-34.884-10.269-43.378-25.46l-462.472-840.852c-3.87-6.906-6.15-15.157-6.15-23.939 0-27.427 22.231-49.662 49.657-49.667h924.685c27.426 0.005 49.657 22.239 49.657 49.667 0 8.783-2.279 17.032-6.279 24.191zM512 139.503c-41.145 0-74.499 33.355-74.499 74.499s33.355 74.499 74.499 74.499c41.145 0 74.499-33.355 74.499-74.499s-33.355-74.499-74.499-74.499zM452.401 387.834v347.664c0 13.715 11.118 24.833 24.833 24.833h69.532c13.715 0 24.833-11.118 24.833-24.833v-347.664c0-13.715-11.118-24.833-24.833-24.833h-69.532c-13.715 0-24.833 11.118-24.833 24.833z" />
<glyph unicode="up" glyph-name="up" d="M512 819c-30.72 0-51.2-10.24-71.68-30.72 0 0-409.6-409.6-409.6-409.6-40.96-40.96-40.96-102.4 0-143.36s102.4-40.96 143.36 0c0 0 337.92 337.92 337.92 337.92s337.92-337.92 337.92-337.92c40.96-40.96 102.4-40.96 143.36 0s40.96 102.4 0 143.36c0 0-409.6 409.6-409.6 409.6-20.48 20.48-40.96 30.72-71.68 30.72 0 0 0 0 0 0" />
<glyph unicode="unlink" glyph-name="unlink" data-tags="S_UnLink_24_N" d="M295.063 779.899l-47.266-45.463-168.391 165.594 47.266 45.463 168.391-165.594zM948.196 123.97l-47.312-45.463-167.49 168.581 47.312 45.463 167.49-168.581zM292.551 1024h73.15v-146.299h-73.15v146.299zM0 731.449h146.299v-73.15h-146.299v73.15zM877.701 365.701h146.299v-73.15h-146.299v73.15zM658.299 146.299h73.15v-146.299h-73.15v146.299zM940.942 940.942c-46.816 46.811-111.487 75.763-182.921 75.763s-136.107-28.952-182.922-75.763c-9.481-9.481-104.96-104.296-155.164-153.979l78.507-78.507c51.769 51.342 150.519 149.57 155.022 154.121 26.752 26.752 63.71 43.299 104.533 43.299 81.646 0 147.832-66.187 147.832-147.832 0-40.823-16.547-77.781-43.299-104.533l-154.596-154.548 78.412-78.412 154.596 154.548c46.811 46.816 75.763 111.487 75.763 182.921s-28.952 136.107-75.763 182.922zM524.516 316.587c-51.010-51.484-149.381-150.519-154.027-155.164-26.752-26.752-63.71-43.299-104.533-43.299-81.646 0-147.832 66.187-147.832 147.832 0 40.823 16.547 77.781 43.299 104.533l154.548 154.596-78.317 78.412-154.548-154.596c-45.76-46.631-74.006-110.59-74.006-181.147 0-142.878 115.824-258.702 258.702-258.702 70.556 0 134.514 28.246 181.187 74.044 9.868 9.869 104.256 105.158 153.844 155.268z" />
<glyph unicode="trash" glyph-name="trash" d="M486.8 211.2c0-12.8 12.8-25.6 25.6-25.6s25.6 12.8 25.6 25.6c0 0 0 460.8 0 460.8 0 12.8-12.8 25.6-25.6 25.6s-25.6-12.8-25.6-25.6c0 0 0-460.8 0-460.8zM608.4 211.2c0-12.8 12.8-25.6 25.6-25.6s25.6 12.8 25.6 25.6c0 0 19.2 467.2 19.2 467.2 0 12.8-12.8 25.6-25.6 25.6s-25.6-19.2-25.6-32c0 0-19.2-460.8-19.2-460.8zM371.6 211.2c0-12.8 12.8-25.6 25.6-25.6s25.6 12.8 25.6 25.6c0 0-25.6 460.8-25.6 460.8 0 12.8-12.8 25.6-25.6 25.6s-25.6-12.8-25.6-25.6c0 0 25.6-460.8 25.6-460.8zM397.2 928c0 0 230.4 0 230.4 0s0-44.8 0-44.8c0 0-230.4 0-230.4 0s0 44.8 0 44.8c0 0 0 0 0 0zM256.4 96c0 0-44.8 697.6-44.8 697.6s608 0 608 0c0 0-51.2-697.6-51.2-697.6s-512 0-512 0c0 0 0 0 0 0zM115.6 793.6c0 0 44.8-697.6 44.8-697.6 0-51.2 44.8-96 96-96 0 0 512 0 512 0 51.2 0 96 44.8 96 96 0 0 44.8 697.6 44.8 697.6s44.8 0 44.8 0c25.6 0 44.8 19.2 44.8 44.8s-19.2 44.8-44.8 44.8c0 0-230.4 0-230.4 0s0 44.8 0 44.8c0 51.2-44.8 96-96 96 0 0-230.4 0-230.4 0-51.2 0-96-44.8-96-96 0 0 0-44.8 0-44.8s-230.4 0-230.4 0c-25.6 0-44.8-19.2-44.8-44.8s19.2-44.8 44.8-44.8c0 0 44.8 0 44.8 0s0 0 0 0" />
<glyph unicode="star_outline" glyph-name="star_outline" d="M512.154 789.752c0 0 93.699-200.785 93.699-200.785s207.477-33.464 207.477-33.464c0 0-147.242-153.934-147.242-153.934s33.464-220.863 33.464-220.863c0 0-187.398 107.085-187.398 107.085s-187.399-100.392-187.399-100.392c0 0 33.464 220.862 33.464 220.862s-147.242 153.935-147.242 153.935c0 0 207.477 33.464 207.477 33.464s93.7 194.092 93.7 194.092zM512.154 1024c0 0-93.7-194.092-93.7-194.092s-66.928-147.241-66.928-147.241c0 0-153.934-26.772-153.934-26.772s-194.092-26.771-194.092-26.771c0 0 133.856-140.549 133.856-140.549s113.778-120.47 113.778-120.47c0 0-26.771-167.321-26.771-167.321s-33.464-200.784-33.464-200.784c0 0 180.706 100.392 180.706 100.392s140.549 73.621 140.549 73.621c0 0 140.549-73.621 140.549-73.621s180.705-100.392 180.705-100.392c0 0-33.464 200.784-33.464 200.784s-26.771 167.321-26.771 167.321c0 0 113.778 120.47 113.778 120.47s133.856 140.549 133.856 140.549c0 0-194.091 26.771-194.091 26.771s-153.935 26.772-153.935 26.772c0 0-66.928 147.241-66.928 147.241s-93.699 194.092-93.699 194.092c0 0 0 0 0 0s0 0 0 0" />
<glyph unicode="star" glyph-name="star" data-tags="S_StarFill_24_N" d="M529.664 965.504l117.419-310.613 331.691-15.659c11.737-0.502 21.062-10.139 21.062-21.954 0-6.93-3.208-13.11-8.22-17.138l-259.243-207.607 87.552-320.299c0.504-1.754 0.793-3.768 0.793-5.85 0-12.136-9.838-21.973-21.973-21.973-4.505 0-8.694 1.356-12.18 3.682l-277.466 182.307-277.589-182.443c-3.406-2.276-7.594-3.631-12.1-3.631-12.136 0-21.973 9.838-21.973 21.973 0 2.082 0.29 4.096 0.831 6.005l87.6 320.229-259.2 207.573c-5.055 4.061-8.262 10.241-8.262 17.171 0 11.815 9.325 21.452 21.017 21.953l331.779 15.703 117.419 310.613c3.256 8.317 11.21 14.1 20.515 14.1 9.321 0 17.286-5.803 20.479-13.993z" />
<glyph unicode="settings" glyph-name="settings" data-tags="S_Settings_24_N" d="M924.8 587.68h-68.8c-5.234 0.010-9.624 3.628-10.811 8.5-8.977 34.865-22.058 65.408-39.031 93.322-0.193 0.158-0.815 2.184-0.815 4.357 0 3.084 1.253 5.872 3.274 7.893l48.619 48.619c8.298 8.301 13.428 19.766 13.428 32.429s-5.134 24.129-13.428 32.429l-42.151 42.151c-8.301 8.298-19.766 13.428-32.429 13.428s-24.129-5.134-32.429-13.428l-48.619-48.619c-2.017-2.022-4.809-3.275-7.893-3.275-2.173 0-4.199 0.622-5.914 1.699-26.357 16.098-56.897 29.179-89.317 37.61-7.217 1.767-10.748 6.068-10.812 11.202v68.806c0 25.332-20.535 45.867-45.867 45.867h-59.627c-25.332 0-45.867-20.535-45.867-45.867v-68.8c-0.010-5.234-3.628-9.624-8.5-10.811-34.864-8.969-65.408-22.054-93.32-39.030-0.159-0.194-2.186-0.816-4.359-0.816-3.084 0-5.872 1.253-7.893 3.274l-48.755 48.802c-8.301 8.298-19.766 13.428-32.429 13.428s-24.129-5.134-32.429-13.428l-42.151-42.151c-8.298-8.301-13.428-19.766-13.428-32.429s5.134-24.129 13.428-32.429l48.619-48.619c2.022-2.017 3.275-4.809 3.275-7.893 0-2.173-0.622-4.199-1.699-5.914-16.094-26.357-29.175-56.896-37.61-89.315-1.725-7.322-6.115-10.94-11.348-10.95h-68.525c-25.332 0-45.867-20.535-45.867-45.867v-59.627c0-25.332 20.535-45.867 45.867-45.867h68.8c5.234-0.010 9.624-3.628 10.811-8.5 8.977-34.865 22.058-65.408 39.031-93.322 0.193-0.158 0.815-2.184 0.815-4.357 0-3.084-1.253-5.872-3.274-7.893l-48.802-48.802c-8.298-8.301-13.428-19.766-13.428-32.429s5.134-24.129 13.428-32.429l42.151-42.151c8.301-8.298 19.766-13.428 32.429-13.428s24.129 5.134 32.429 13.428l48.619 48.619c2.017 2.022 4.809 3.275 7.893 3.275 2.173 0 4.199-0.622 5.914-1.699 26.357-16.094 56.896-29.175 89.315-37.61 7.322-1.725 10.94-6.115 10.95-11.348v-68.525c0-25.332 20.535-45.867 45.867-45.867h59.627c25.332 0 45.867 20.535 45.867 45.867v68.8c0.010 5.234 3.628 9.624 8.5 10.811 34.865 8.977 65.408 22.058 93.322 39.031 0.158 0.193 2.184 0.815 4.357 0.815 3.084 0 5.872-1.253 7.893-3.274l48.619-48.619c8.301-8.298 19.766-13.428 32.429-13.428s24.129 5.134 32.429 13.428l42.151 42.151c8.298 8.301 13.428 19.766 13.428 32.429s-5.134 24.129-13.428 32.429l-48.619 48.619c-2.022 2.017-3.275 4.809-3.275 7.893 0 2.173 0.622 4.199 1.699 5.914 16.094 26.357 29.175 56.896 37.61 89.315 1.771 7.232 6.094 10.775 11.252 10.814h68.804c25.332 0 45.867 20.535 45.867 45.867v59.627c0 25.332-20.535 45.867-45.867 45.867zM512 340c-94.994 0-172 77.006-172 172s77.006 172 172 172c94.994 0 172-77.006 172-172s-77.006-172-172-172z" />
<glyph unicode="search" glyph-name="search" d="M597.833 1024c-233.244 0-426.666-193.422-426.666-426.667 0-85.333 22.755-164.977 68.266-233.244-79.644-79.645-193.422-193.422-204.8-204.8-17.066-17.067-34.133-34.133-34.133-62.578s17.067-45.511 34.133-62.578c17.067-17.066 28.445-34.133 62.578-34.133s45.511 17.067 62.578 34.133c11.378 11.378 130.844 130.845 204.8 204.8 68.267-45.511 147.911-68.266 233.244-68.266 233.245 0 426.667 193.422 426.667 426.666s-193.422 426.667-426.667 426.667c0 0 0 0 0 0zM597.833 290.133c-170.666 0-307.2 136.534-307.2 307.2s136.534 307.2 307.2 307.2c170.667 0 307.2-136.533 307.2-307.2s-136.533-307.2-307.2-307.2c0 0 0 0 0 0" />
<glyph unicode="right" glyph-name="right" d="M819 512c0 30.72-10.24 51.2-30.72 71.68 0 0-409.6 409.6-409.6 409.6-40.96 40.96-102.4 40.96-143.36 0s-40.96-102.4 0-143.36c0 0 337.92-337.92 337.92-337.92s-337.92-337.92-337.92-337.92c-40.96-40.96-40.96-102.4 0-143.36s102.4-40.96 143.36 0c0 0 409.6 409.6 409.6 409.6 20.48 20.48 30.72 40.96 30.72 71.68 0 0 0 0 0 0" />
<glyph unicode="properties" glyph-name="properties" data-tags="S_Properties_24_N" d="M1002.667 810.667h-338.475c2.158-12.745 3.457-27.504 3.583-42.543-0.126-15.286-1.425-30.046-3.809-44.438l338.7 1.648c11.782 0 21.333 9.551 21.333 21.333v42.667c0 11.782-9.551 21.333-21.333 21.333zM100.267 768c0.127 15.163 1.426 29.922 3.809 44.315l-82.743-1.648c-11.782 0-21.333-9.551-21.333-21.333v-42.667c0-11.782 9.551-21.333 21.333-21.333h82.475c-2.146 12.754-3.43 27.516-3.541 42.558zM172.8 768c0-116.643 94.557-211.2 211.2-211.2s211.2 94.557 211.2 211.2c0 116.643-94.557 211.2-211.2 211.2s-211.2-94.557-211.2-211.2zM250.325 768c0 73.826 59.848 133.675 133.675 133.675s133.675-59.848 133.675-133.675c0-73.826-59.848-133.675-133.675-133.675s-133.675 59.848-133.675 133.675zM21.333 298.667h338.475c-2.268-12.827-3.565-27.596-3.565-42.667s1.297-29.839 3.785-44.199l-338.694 1.533c-11.782 0-21.333 9.551-21.333 21.333v42.667c0 11.782 9.551 21.333 21.333 21.333zM923.733 256c-0.127 15.163-1.426 29.922-3.809 44.315l82.743-1.648c11.782 0 21.333-9.551 21.333-21.333v-42.667c0-11.782-9.551-21.333-21.333-21.333h-82.475c2.146 12.754 3.43 27.516 3.541 42.558zM640 467.2c-116.643 0-211.2-94.557-211.2-211.2s94.557-211.2 211.2-211.2c116.643 0 211.2 94.557 211.2 211.2s-94.557 211.2-211.2 211.2zM640 122.325c-73.826 0-133.675 59.848-133.675 133.675s59.848 133.675 133.675 133.675c73.826 0 133.675-59.848 133.675-133.675s-59.848-133.675-133.675-133.675z" />
<glyph unicode="plus_circle" glyph-name="plus_circle" data-tags="S_AddCircle_24_N" d="M512 1024c-282.77 0-512-229.23-512-512s229.23-512 512-512c282.77 0 512 229.23 512 512s-229.23 512-512 512c0 0 0 0 0 0zM820.744 486.272c0-14.209-11.519-25.728-25.728-25.728h-231.558v-231.558c0-14.209-11.519-25.728-25.728-25.728h-51.458c-14.209 0-25.728 11.519-25.728 25.728v231.558h-231.558c-14.209 0-25.728 11.519-25.728 25.728v51.458c0 14.209 11.519 25.728 25.728 25.728h231.558v231.558c0 14.209 11.519 25.728 25.728 25.728h51.458c14.209 0 25.728-11.519 25.728-25.728v-231.558h231.558c14.209 0 25.728-11.519 25.728-25.728v-51.458z" />
<glyph unicode="plus" glyph-name="plus" data-tags="S_Add_24_N" d="M991.662 612.605h-375.462v375.462c0 18.848-15.28 34.135-34.135 34.135h-136.534c-18.848 0-34.135-15.28-34.135-34.135v-375.462h-375.462c-18.848 0-34.135-15.28-34.135-34.135v-136.534c0-18.848 15.28-34.135 34.135-34.135h375.462v-375.462c0-18.848 15.28-34.135 34.135-34.135h136.534c18.848 0 34.135 15.28 34.135 34.135v375.462h375.462c18.848 0 34.135 15.28 34.135 34.135v136.534c0 18.848-15.28 34.135-34.135 34.135z" />
<glyph unicode="pencil" glyph-name="pencil" d="M867.709 995.702c-38.397 38.397-89.594 38.397-127.992 0 0 0-633.562-633.562-633.562-633.562s-102.393-294.382-102.393-294.382c-12.8-51.197 12.799-76.796 63.996-63.996 0 0 294.382 102.393 294.382 102.393s633.562 633.562 633.562 633.562c38.397 38.398 38.397 95.994 0 127.992 0 0-127.993 127.993-127.993 127.993zM150.953 304.544c0 0 140.791-159.991 140.791-159.991s-127.992-44.797-127.992-44.797c0 0-57.597 70.396-57.597 70.396s44.798 134.392 44.798 134.392zM330.142 182.951c0 0-134.392 153.591-134.392 153.591s511.969 499.169 511.969 499.169c0 0 127.992-127.992 127.992-127.992s-505.569-524.768-505.569-524.768zM880.509 726.918c0 0-140.792 140.791-140.792 140.791s31.998 31.999 31.998 31.999c19.199 19.198 44.798 19.198 63.996 0 0 0 76.796-70.396 76.796-70.396 19.199-19.199 19.199-44.797 0-63.996 0 0-31.998-38.398-31.998-38.398" />
<glyph unicode="link" glyph-name="link" data-tags="S_Link_24_N" d="M947.503 947.503c-47.532 47.531-113.196 76.929-185.726 76.929s-138.195-29.398-185.726-76.929c-14.234-14.234-90.147-88.77-130.048-128.53 6.306 0.466 13.662 0.732 21.079 0.732 41.878 0 81.779-8.466 118.084-23.779 16.98 19.727 62.813 64.041 70.688 71.917 26.688 24.788 62.57 39.998 102.006 39.998 82.881 0 150.071-67.189 150.071-150.071 0-39.482-15.247-75.403-40.174-102.196l-194.442-194.436c-29.442-29.317-70.049-47.44-114.888-47.44-41.299 0-79.008 15.375-107.714 40.714-19.407 15.477-34.863 35.453-44.848 58.363-6.344-2.362-11.485-6.218-16.056-10.66l-59.812-62.658c12.538-23.449 27.473-43.604 44.913-61.282 102.548-102.548 288.156-86.512 390.734 16.066l181.812 181.812c47.545 47.534 76.953 113.208 76.953 185.75 0 72.518-29.389 138.173-76.906 185.703zM436.087 225.618c-18.979-18.979-59.876-61.68-67.752-69.508-26.961-26.072-63.739-42.14-104.269-42.14-82.881 0-150.071 67.189-150.071 150.071 0 40.542 16.076 77.329 42.203 104.334l194.773 194.865c29.2 29.237 69.558 47.323 114.142 47.323 41.179 0 78.754-15.429 107.259-40.822 17.974-16.109 31.896-36.695 40.003-60.004 6.249 2.335 11.376 6.191 15.933 10.627l63.466 62.802c-12.538 23.449-27.473 43.604-44.913 61.282-48.151 47.013-114.11 76.034-186.846 76.034-73.616 0-140.289-29.726-188.67-77.831l-194.847-194.705c-47.012-47.443-76.061-112.756-76.061-184.855 0-145.063 117.597-262.66 262.66-262.66 72.098 0 137.411 29.049 184.874 76.080 14.214 14.214 85.382 87.090 125.094 126.85-6.287-0.463-13.62-0.727-21.015-0.727-41.83 0-81.688 8.447-117.961 23.727z" />
<glyph unicode="left" glyph-name="left" d="M205 512c0-30.72 10.24-51.2 30.72-71.68 0 0 409.6-409.6 409.6-409.6 40.96-40.96 102.4-40.96 143.36 0s40.96 102.4 0 143.36c0 0-337.92 337.92-337.92 337.92s337.92 337.92 337.92 337.92c40.96 40.96 40.96 102.4 0 143.36s-102.4 40.96-143.36 0c0 0-409.6-409.6-409.6-409.6-20.48-20.48-30.72-40.96-30.72-71.68 0 0 0 0 0 0" />
<glyph unicode="info" glyph-name="info" data-tags="S_InfoOutline_24_N" d="M512 926.232c228.773 0 414.232-185.457 414.232-414.232s-185.457-414.232-414.232-414.232c-228.773 0-414.232 185.457-414.232 414.232 0.263 228.667 185.564 413.968 414.206 414.232zM512 1024c-282.77 0-512-229.23-512-512s229.23-512 512-512c282.77 0 512 229.23 512 512s-229.23 512-512 512c0 0 0 0 0 0zM449.222 750.093c0 31.83 25.803 57.633 57.633 57.633s57.633-25.803 57.633-57.633c0.104-1.251 0.163-2.706 0.163-4.176 0-29.613-24.006-53.619-53.619-53.619-1.47 0-2.926 0.059-4.366 0.175-0.794-0.076-1.943-0.112-3.101-0.112-30.068 0-54.441 24.374-54.441 54.441 0 1.158 0.036 2.306 0.107 3.446zM602.051 306.17h-38.593v283.016c0 14.209-11.519 25.728-25.728 25.728h-115.779c-7.105 0-12.865-5.76-12.865-12.865v-25.728c0-7.105 5.76-12.865 12.865-12.865h38.593v-257.286h-38.593c-7.105 0-12.865-5.76-12.865-12.865v-25.728c0-7.105 5.76-12.865 12.865-12.865h180.1c7.105 0 12.865 5.76 12.865 12.865v25.728c0 7.105-5.76 12.865-12.865 12.865z" />
<glyph unicode="help" glyph-name="help" data-tags="S_HelpOutline_24_N" d="M512 926.232c228.773 0 414.232-185.457 414.232-414.232s-185.457-414.232-414.232-414.232c-228.773 0-414.232 185.457-414.232 414.232 0.263 228.667 185.564 413.968 414.206 414.232zM512 1024c-282.77 0-512-229.23-512-512s229.23-512 512-512c282.77 0 512 229.23 512 512s-229.23 512-512 512c0 0 0 0 0 0zM659.271 649.237c0-90.564-116.911-142.433-116.911-189.363 0.976-16.397 6.375-31.36 15.010-43.928 0.252-0.369 0.515-1.183 0.515-2.057 0-2.359-1.913-4.271-4.271-4.271-0.194 0-0.386 0.013-0.573 0.039l-72.431-0.002c-0.42-0.059-0.905-0.092-1.398-0.092-3.45 0-6.516 1.64-8.463 4.183-12.941 15.004-20.964 34.529-21.424 55.915-0.001 65.961 108.059 106.304 108.059 172.169-2.559 34.239-30.97 61.050-65.642 61.050-3.933 0-7.786-0.345-11.53-1.007-0.439 0.069-1.427 0.075-2.416 0.075-35.056 0-68.341-7.586-98.301-21.207 0.891 0.145 0.13-0.133-0.696-0.133-1.989 0-3.602 1.612-3.602 3.602 0 0.152 0.010 0.302 0.028 0.449l-0.001 65.024c-0.118 0.511-0.186 1.097-0.186 1.701 0 2.709 1.369 5.099 3.452 6.515 34.552 16.291 75.018 25.791 117.701 25.791 1.758 0 3.512-0.016 5.263-0.048 96.065-0.151 157.814-55.518 157.814-134.402zM454.265 286.926c0 31.83 25.803 57.633 57.633 57.633s57.633-25.803 57.633-57.633c0.101-1.233 0.158-2.668 0.158-4.117 0-29.613-24.006-53.619-53.619-53.619-1.432 0-2.851 0.057-4.255 0.166-0.829-0.080-2.014-0.117-3.208-0.117-30.068 0-54.441 24.374-54.441 54.441 0 1.16 0.036 2.311 0.107 3.453z" />
<glyph unicode="heart" glyph-name="heart" data-tags="S_Heart_24_N" d="M744.704 935.577c-98.539-5.993-183.319-59.846-231.98-138.42-50.108 78.574-134.887 132.427-232.605 138.379-155.072 0.040-280.117-125.005-280.117-279.255 0-253.081 512-605.082 512-605.082s512 358.4 512 605.082c0 154.25-125.045 279.296-279.296 279.296z" />
<glyph unicode="download_cloud" glyph-name="download_cloud" d="M711.68 180.7c0 0-163.84-163.84-163.84-163.84s-10.24-5.12-15.36-10.24c0 0-15.36-5.12-15.36-5.12s-5.12 0-5.12 0c0 0-5.12 0-10.24 0s-5.12 0-10.24 5.12c-5.12 0-10.24 5.12-10.24 10.24 0 0-5.12 5.12-5.12 5.12-10.24 15.36-102.4 102.4-158.72 158.72-20.48 20.48-20.48 46.080 0 66.56s46.080 20.48 61.44 0c20.48-25.6 81.92-71.68 81.92-87.040 0 0 0 399.36 0 399.36 0 25.6 25.6 46.080 51.2 46.080s51.2-20.48 51.2-46.080c0 0 0-399.36 0-399.36s81.92 87.040 81.92 87.040c10.24 10.24 20.48 15.36 30.72 15.36s25.6-5.12 30.72-15.36c20.48-20.48 20.48-51.2 5.12-66.56 0 0 0 0 0 0zM819.2 774.62c0 0-5.12 5.12-5.12 5.12-30.72 148.48-184.32 261.12-343.040 240.64-122.88-15.36-240.64-102.4-266.24-230.4 0 0 0-5.12-5.12-5.12-117.76-10.24-199.68-133.12-199.68-261.12s87.040-245.76 204.8-266.24c5.12 20.48 15.36 40.96 35.84 56.32 20.48 20.48 40.96 30.72 66.56 35.84-5.12 10.24-15.36 15.36-30.72 15.36-5.12 0-5.12 0-5.12 0s-35.84 0-35.84 0c-76.8 0-148.48 87.040-148.48 168.96 0 71.68 40.96 148.48 107.52 158.72 5.12 0 15.36 0 25.6 0 25.6 0 51.2-10.24 76.8-25.6 5.12-5.12 5.12 0 5.12 5.12-15.36 25.6-15.36 51.2-15.36 76.8 0 15.36 0 25.6 5.12 40.96 25.6 81.92 117.76 143.36 204.8 148.48 102.4 5.12 204.8-71.68 230.4-158.72 5.12-15.36 5.12-30.72 5.12-46.080 0-20.48-5.12-40.96-10.24-61.44 0-5.12 5.12-5.12 5.12-5.12 20.48 15.36 51.2 25.6 76.8 25.6 10.24 0 15.36 0 25.6 0 66.56-10.24 112.64-87.040 112.64-158.72 0-76.8-81.92-158.72-153.6-158.72 0 0-46.080 0-46.080 0-10.24 0-20.48-5.12-25.6-15.36 25.6-5.12 46.080-20.48 66.56-35.84 15.36-15.36 30.72-35.84 35.84-56.32 117.76 15.36 204.8 138.24 204.8 266.24 0 117.76-81.92 225.28-204.8 240.64 0 0 0 0 0 0" />
<glyph unicode="download" glyph-name="download" d="M470.247 198.776c0 0 0 0 0 0 6.024-6.023 12.047-12.047 18.071-12.047 0 0 0 0 0 0 6.023 0 18.070-6.023 24.094-6.023s18.070 0 24.094 6.023c6.023 0 12.047 6.024 18.070 12.047 0 0 240.942 240.942 240.942 240.942 24.094 24.094 24.094 60.235 0 84.329s-60.236 24.094-84.33 0c0 0-138.541-138.541-138.541-138.541s0 578.259 0 578.259c0 36.141-24.094 60.235-60.235 60.235s-60.236-24.094-60.236-60.235c0 0 0-578.259 0-578.259s-138.541 138.541-138.541 138.541c-24.094 24.094-60.235 24.094-84.329 0s-24.094-60.235 0-84.329c0 0 240.941-240.942 240.941-240.942s0 0 0 0zM813.588 120.471c0 0-602.353 0-602.353 0-36.141 0-60.235-24.095-60.235-60.236s24.094-60.235 60.235-60.235c0 0 602.353 0 602.353 0 36.141 0 60.236 24.094 60.236 60.235s-24.095 60.236-60.236 60.236c0 0 0 0 0 0" />
<glyph unicode="downdown_big_big" glyph-name="down_big" d="M922.292 517.753c-34.517 34.517-103.55 34.517-138.067 0 0 0-161.079-161.079-161.079-161.079s0 552.27 0 552.27c0 69.034-46.022 115.056-115.056 115.056s-115.056-46.022-115.056-115.056c0 0 0-552.27 0-552.27s-161.079 161.079-161.079 161.079c-34.517 34.517-103.551 34.517-138.067 0s-34.517-103.551 0-138.068c0 0 345.168-345.168 345.168-345.168 23.011-23.011 46.023-34.517 69.034-34.517s46.022 11.506 69.034 34.517c0 0 345.168 345.168 345.168 345.168 46.023 34.517 46.023 103.551 0 138.068 0 0 0 0 0 0" />
<glyph unicode="down" glyph-name="down" d="M512 205c-30.72 0-51.2 10.24-71.68 30.72 0 0-409.6 409.6-409.6 409.6-40.96 40.96-40.96 102.4 0 143.36s102.4 40.96 143.36 0c0 0 337.92-337.92 337.92-337.92s337.92 337.92 337.92 337.92c40.96 40.96 102.4 40.96 143.36 0s40.96-102.4 0-143.36c0 0-409.6-409.6-409.6-409.6-20.48-20.48-40.96-30.72-71.68-30.72 0 0 0 0 0 0" />
<glyph unicode="dotdotdot" glyph-name="dotdotdot" d="M0 512.197c0-98.56 106.688-160.128 192-110.848 39.616 22.848 64 65.088 64 110.848 0 98.56-106.688 160.128-192 110.848-39.616-22.848-64-65.088-64-110.848zM384 512.197c0-98.56 106.688-160.128 192-110.848 39.616 22.848 64 65.088 64 110.848 0 98.56-106.688 160.128-192 110.848-39.616-22.848-64-65.088-64-110.848zM768 512.197c0-98.56 106.688-160.128 192-110.848 39.616 22.848 64 65.088 64 110.848 0 98.56-106.688 160.128-192 110.848-39.616-22.848-64-65.088-64-110.848" />
<glyph unicode="creativecloud" glyph-name="creativecloud" data-tags="S_CreativeCloud_24_N" d="M439.043 733.597c18.752-7.54 34.814-16.021 49.859-25.922 38.146 32.065 88.47 51.068 143.233 51.068 127.937 0 231.649-103.714 231.649-231.649s-103.714-231.649-231.649-231.649c-64.026 0-121.987 25.976-163.916 67.964l-135.347 135.77c-4.643 4.769-11.125 7.726-18.298 7.726-14.1 0-25.531-11.43-25.531-25.531 0-6.928 2.759-13.21 7.238-17.811l136.231-136.231c51.155-51.123 121.807-82.741 199.845-82.741 156.139 0 282.715 126.576 282.715 282.715s-126.576 282.715-282.715 282.715c-74.843 0-142.892-29.082-193.466-76.562zM106.578 472.727c0.026-126.204 102.342-228.502 228.549-228.502 0.033 0 0.066 0 0.099 0h119.413c-23.781 15.034-44.389 31.849-62.77 50.834l-56.461 0.090c-96.849 1.625-174.736 80.518-174.736 177.601s77.887 175.976 174.584 177.6c1.101 0.021 2.219 0.032 3.339 0.032 43.661 0 83.459-16.546 113.463-43.707l102.691-105.384c4.643-4.769 11.125-7.726 18.298-7.726 14.1 0 25.531 11.43 25.531 25.531 0 6.928-2.759 13.21-7.238 17.811l-102.877 105.648c-39.325 36.522-92.195 58.933-150.3 58.933-1.101 0-2.2-0.008-3.297-0.024 0.152 0.002 0.135 0.002 0.119 0.002-126.146 0-228.408-102.261-228.408-228.408 0-0.050 0-0.099 0-0.149v0.008zM632.029 880.309c195.034-0.031 353.127-158.144 353.127-353.182 0-174.378-126.375-319.24-292.535-347.995s-49.083-5.375-87.84-5.375h-269.561c-165.181 0-299.086 133.906-299.086 299.086s133.906 299.086 299.086 299.086c0.077 0 0.17 0 0.261 0 13.703 0 27.199-0.887 40.433-2.608l15.116 15.81c62.745 58.957 147.448 95.178 240.613 95.178 0.135 0 0.271 0 0.407 0zM632.029 917.892c-0.192 0-0.42 0-0.646 0-103.041 0-196.729-40.046-266.349-105.423l-4.068-3.801c-8.691 0.516-17.288 0.846-25.932 0.846-185.897-0.054-336.575-150.765-336.575-336.67 0-185.937 150.732-336.67 336.67-336.67 0.033 0 0.066 0 0.099 0h269.602c40.119 0 87.896 5.074 89.916 5.308 186.999 31.415 327.713 192.097 327.713 385.644 0 215.695-174.76 390.573-390.41 390.764z" />
<glyph unicode="close_circle" glyph-name="close_circle" data-tags="S_CloseCircle_24_N" d="M874.054 874.054c-92.655 92.661-220.659 149.972-362.049 149.972-282.77 0-512-229.23-512-512s229.23-512 512-512c141.39 0 269.395 57.312 362.049 149.972 92.647 92.653 149.951 220.648 149.951 362.029s-57.303 269.376-149.951 362.029zM712.118 268.247c-4.655-4.654-11.087-7.533-18.191-7.533s-13.534 2.879-18.191 7.533l-163.737 163.686-163.737-163.686c-4.655-4.654-11.087-7.533-18.191-7.533s-13.534 2.879-18.191 7.533l-43.635 43.635c-4.654 4.655-7.533 11.087-7.533 18.191s2.879 13.534 7.533 18.191l163.686 163.737-163.737 163.737c-4.654 4.655-7.533 11.087-7.533 18.191s2.879 13.534 7.533 18.191l43.687 43.687c4.655 4.654 11.087 7.533 18.191 7.533s13.534-2.879 18.191-7.533l163.737-163.737 163.737 163.737c4.655 4.654 11.087 7.533 18.191 7.533s13.534-2.879 18.191-7.533l43.635-43.635c4.654-4.655 7.533-11.087 7.533-18.191s-2.879-13.534-7.533-18.191l-163.686-163.789 163.686-163.737c4.654-4.655 7.533-11.087 7.533-18.191s-2.879-13.534-7.533-18.191z" />
<glyph unicode="close" glyph-name="x" data-tags="S_Close_24_N" d="M854.665 983.147l-342.665-342.665-342.665 342.665c-5.487 5.486-13.050 8.862-21.41 8.862s-15.93-3.39-21.41-8.862l-85.649-85.649c-5.486-5.487-8.862-13.050-8.862-21.41s3.39-15.93 8.862-21.41l342.665-342.665-342.665-342.665c-5.486-5.487-8.862-13.050-8.862-21.41s3.39-15.93 8.862-21.41l85.649-85.649c5.487-5.486 13.050-8.862 21.41-8.862s15.93 3.39 21.41 8.862l342.665 342.665 342.665-342.665c5.487-5.486 13.050-8.862 21.41-8.862s15.93 3.39 21.41 8.862l85.649 85.649c5.486 5.487 8.862 13.050 8.862 21.41s-3.39 15.93-8.862 21.41l-342.665 342.665 342.665 342.665c5.486 5.487 8.862 13.050 8.862 21.41s-3.39 15.93-8.862 21.41l-85.649 85.649c-5.487 5.486-13.050 8.862-21.41 8.862s-15.93-3.39-21.41-8.862z" />
<glyph unicode="check_circle" glyph-name="check_circle" data-tags="S_CheckmarkCircle_24_N" d="M512 1024c-282.77 0-512-229.23-512-512s229.23-512 512-512c282.77 0 512 229.23 512 512s-229.23 512-512 512c0 0 0 0 0 0zM835.203 700.179v0l-374.198-479.942c-5.327-6.789-13.333-11.266-22.398-11.831l-1.992-0.005c-0.007 0-0.016 0-0.024 0-8.533 0-16.256 3.461-21.845 9.056l-200.324 200.684c-5.595 5.589-9.055 13.312-9.055 21.844s3.46 16.255 9.055 21.844l34.116 34.116c5.586 5.579 13.299 9.030 21.818 9.030s16.232-3.45 21.818-9.030l137.494-137.854 319.035 409.138c5.705 7.2 14.447 11.778 24.259 11.778 7.249 0 13.914-2.498 19.182-6.68l37.655-28.767c7.293-5.702 11.937-14.501 11.937-24.385 0-7.193-2.46-13.811-6.585-19.060z" />
<glyph unicode="check" glyph-name="check" data-tags="S_Checkmark_24_N" d="M1002.671 913.74l-84.286 65.623c-4.744 3.71-10.796 5.944-17.375 5.944-9.042 0-17.094-4.229-22.285-10.82l-501.891-644.664-244.285 244.229c-5.129 5.128-12.221 8.3-20.052 8.3s-14.915-3.172-20.052-8.3l-76.401-76.401c-5.128-5.129-8.3-12.221-8.3-20.052s3.172-14.915 8.3-20.052l352.565-353.017c5.13-5.133 12.226-8.316 20.060-8.316 9.059 0 17.126 4.245 22.321 10.858l596.672 766.839c3.727 4.758 5.98 10.824 5.98 17.413 0 9.078-4.269 17.164-10.904 22.352z" />
</font>
</defs>
</svg>
